  0
SECTION
  2
HEADER
  9
$ACADVER
  1
AC1015
  9
$ACADMAINTVER
 70
     6
  9
$DWGCODEPAGE
  3
ANSI_1252
  9
$INSBASE
 10
0.0
 20
0.0
 30
0.0
  9
$EXTMIN
 10
-297.0000000000002
 20
0.0
 30
0.0
  9
$EXTMAX
 10
0.0
 20
210.0000000000001
 30
0.0
  9
$LIMMIN
 10
0.0
 20
0.0
  9
$LIMMAX
 10
12.0
 20
9.0
  9
$ORTHOMODE
 70
     0
  9
$REGENMODE
 70
     1
  9
$FILLMODE
 70
     1
  9
$QTEXTMODE
 70
     0
  9
$MIRRTEXT
 70
     1
  9
$LTSCALE
 40
1.0
  9
$ATTMODE
 70
     1
  9
$TEXTSIZE
 40
0.2
  9
$TRACEWID
 40
0.05
  9
$TEXTSTYLE
  7
Standard
  9
$CLAYER
  8
0
  9
$CELTYPE
  6
ByLayer
  9
$CECOLOR
 62
   256
  9
$CELTSCALE
 40
1.0
  9
$DISPSILH
 70
     0
  9
$DIMSCALE
 40
1.0
  9
$DIMASZ
 40
0.18
  9
$DIMEXO
 40
0.0625
  9
$DIMDLI
 40
0.38
  9
$DIMRND
 40
0.0
  9
$DIMDLE
 40
0.0
  9
$DIMEXE
 40
0.18
  9
$DIMTP
 40
0.0
  9
$DIMTM
 40
0.0
  9
$DIMTXT
 40
0.18
  9
$DIMCEN
 40
0.09
  9
$DIMTSZ
 40
0.0
  9
$DIMTOL
 70
     0
  9
$DIMLIM
 70
     0
  9
$DIMTIH
 70
     1
  9
$DIMTOH
 70
     1
  9
$DIMSE1
 70
     0
  9
$DIMSE2
 70
     0
  9
$DIMTAD
 70
     0
  9
$DIMZIN
 70
     0
  9
$DIMBLK
  1

  9
$DIMASO
 70
     1
  9
$DIMSHO
 70
     1
  9
$DIMPOST
  1

  9
$DIMAPOST
  1

  9
$DIMALT
 70
     0
  9
$DIMALTD
 70
     2
  9
$DIMALTF
 40
25.4
  9
$DIMLFAC
 40
1.0
  9
$DIMTOFL
 70
     0
  9
$DIMTVP
 40
0.0
  9
$DIMTIX
 70
     0
  9
$DIMSOXD
 70
     0
  9
$DIMSAH
 70
     0
  9
$DIMBLK1
  1

  9
$DIMBLK2
  1

  9
$DIMSTYLE
  2
Standard
  9
$DIMCLRD
 70
     0
  9
$DIMCLRE
 70
     0
  9
$DIMCLRT
 70
     0
  9
$DIMTFAC
 40
1.0
  9
$DIMGAP
 40
0.09
  9
$DIMJUST
 70
     0
  9
$DIMSD1
 70
     0
  9
$DIMSD2
 70
     0
  9
$DIMTOLJ
 70
     1
  9
$DIMTZIN
 70
     0
  9
$DIMALTZ
 70
     0
  9
$DIMALTTZ
 70
     0
  9
$DIMUPT
 70
     0
  9
$DIMDEC
 70
     4
  9
$DIMTDEC
 70
     4
  9
$DIMALTU
 70
     2
  9
$DIMALTTD
 70
     2
  9
$DIMTXSTY
  7
Standard
  9
$DIMAUNIT
 70
     0
  9
$DIMADEC
 70
     0
  9
$DIMALTRND
 40
0.0
  9
$DIMAZIN
 70
     0
  9
$DIMDSEP
 70
    46
  9
$DIMATFIT
 70
     3
  9
$DIMFRAC
 70
     0
  9
$DIMLDRBLK
  1

  9
$DIMLUNIT
 70
     2
  9
$DIMLWD
 70
    -2
  9
$DIMLWE
 70
    -2
  9
$DIMTMOVE
 70
     0
  9
$LUNITS
 70
     2
  9
$LUPREC
 70
     4
  9
$SKETCHINC
 40
0.1
  9
$FILLETRAD
 40
0.5
  9
$AUNITS
 70
     0
  9
$AUPREC
 70
     0
  9
$MENU
  1
.
  9
$ELEVATION
 40
0.0
  9
$PELEVATION
 40
0.0
  9
$THICKNESS
 40
0.0
  9
$LIMCHECK
 70
     0
  9
$CHAMFERA
 40
0.5
  9
$CHAMFERB
 40
0.5
  9
$CHAMFERC
 40
1.0
  9
$CHAMFERD
 40
0.0
  9
$SKPOLY
 70
     0
  9
$TDCREATE
 40
2456997.594729988
  9
$TDUCREATE
 40
2456997.553063322
  9
$TDUPDATE
 40
2456997.594730174
  9
$TDUUPDATE
 40
2456997.553063507
  9
$TDINDWG
 40
0.0000000116
  9
$TDUSRTIMER
 40
0.0000000116
  9
$USRTIMER
 70
     1
  9
$ANGBASE
 50
0.0
  9
$ANGDIR
 70
     0
  9
$PDMODE
 70
     0
  9
$PDSIZE
 40
0.0
  9
$PLINEWID
 40
0.0
  9
$SPLFRAME
 70
     0
  9
$SPLINETYPE
 70
     6
  9
$SPLINESEGS
 70
     8
  9
$HANDSEED
  5
22B
  9
$SURFTAB1
 70
     6
  9
$SURFTAB2
 70
     6
  9
$SURFTYPE
 70
     6
  9
$SURFU
 70
     6
  9
$SURFV
 70
     6
  9
$UCSBASE
  2

  9
$UCSNAME
  2

  9
$UCSORG
 10
0.0
 20
0.0
 30
0.0
  9
$UCSXDIR
 10
1.0
 20
0.0
 30
0.0
  9
$UCSYDIR
 10
0.0
 20
1.0
 30
0.0
  9
$UCSORTHOREF
  2

  9
$UCSORTHOVIEW
 70
     0
  9
$UCSORGTOP
 10
0.0
 20
0.0
 30
0.0
  9
$UCSORGBOTTOM
 10
0.0
 20
0.0
 30
0.0
  9
$UCSORGLEFT
 10
0.0
 20
0.0
 30
0.0
  9
$UCSORGRIGHT
 10
0.0
 20
0.0
 30
0.0
  9
$UCSORGFRONT
 10
0.0
 20
0.0
 30
0.0
  9
$UCSORGBACK
 10
0.0
 20
0.0
 30
0.0
  9
$PUCSBASE
  2

  9
$PUCSNAME
  2

  9
$PUCSORG
 10
0.0
 20
0.0
 30
0.0
  9
$PUCSXDIR
 10
1.0
 20
0.0
 30
0.0
  9
$PUCSYDIR
 10
0.0
 20
1.0
 30
0.0
  9
$PUCSORTHOREF
  2

  9
$PUCSORTHOVIEW
 70
     0
  9
$PUCSORGTOP
 10
0.0
 20
0.0
 30
0.0
  9
$PUCSORGBOTTOM
 10
0.0
 20
0.0
 30
0.0
  9
$PUCSORGLEFT
 10
0.0
 20
0.0
 30
0.0
  9
$PUCSORGRIGHT
 10
0.0
 20
0.0
 30
0.0
  9
$PUCSORGFRONT
 10
0.0
 20
0.0
 30
0.0
  9
$PUCSORGBACK
 10
0.0
 20
0.0
 30
0.0
  9
$USERI1
 70
     0
  9
$USERI2
 70
     0
  9
$USERI3
 70
     0
  9
$USERI4
 70
     0
  9
$USERI5
 70
     0
  9
$USERR1
 40
18.1
  9
$USERR2
 40
0.0
  9
$USERR3
 40
0.0
  9
$USERR4
 40
0.0
  9
$USERR5
 40
0.0
  9
$WORLDVIEW
 70
     1
  9
$SHADEDGE
 70
     3
  9
$SHADEDIF
 70
    70
  9
$TILEMODE
 70
     1
  9
$MAXACTVP
 70
    64
  9
$PINSBASE
 10
0.0
 20
0.0
 30
0.0
  9
$PLIMCHECK
 70
     0
  9
$PEXTMIN
 10
1.00000000000000E+20
 20
1.00000000000000E+20
 30
1.00000000000000E+20
  9
$PEXTMAX
 10
-1.00000000000000E+20
 20
-1.00000000000000E+20
 30
-1.00000000000000E+20
  9
$PLIMMIN
 10
0.0
 20
0.0
  9
$PLIMMAX
 10
12.0
 20
9.0
  9
$UNITMODE
 70
     0
  9
$VISRETAIN
 70
     1
  9
$PLINEGEN
 70
     0
  9
$PSLTSCALE
 70
     1
  9
$TREEDEPTH
 70
  3020
  9
$CMLSTYLE
  2
Standard
  9
$CMLJUST
 70
     0
  9
$CMLSCALE
 40
1.0
  9
$PROXYGRAPHICS
 70
     1
  9
$MEASUREMENT
 70
     1
  9
$CELWEIGHT
370
    -1
  9
$ENDCAPS
280
     0
  9
$JOINSTYLE
280
     0
  9
$LWDISPLAY
290
     0
  9
$INSUNITS
 70
     4
  9
$HYPERLINKBASE
  1

  9
$STYLESHEET
  1

  9
$XEDIT
290
     1
  9
$CEPSNTYPE
380
     0
  9
$PSTYLEMODE
290
     1
  9
$FINGERPRINTGUID
  2
{CA6E4B32-4BD5-4CC4-A1D0-64FE91A9D3BC}
  9
$VERSIONGUID
  2
{FAEB1C32-E019-11D5-929B-00C0DF256EC4}
  9
$EXTNAMES
290
     1
  9
$PSVPSCALE
 40
0.0
  9
$OLESTARTUP
290
     0
  0
ENDSEC
  0
SECTION
  2
CLASSES
  0
CLASS
  1
ACDBDICTIONARYWDFLT
  2
AcDbDictionaryWithDefault
  3
ObjectDBX Classes
 90
        0
280
     0
281
     0
  0
CLASS
  1
VISUALSTYLE
  2
AcDbVisualStyle
  3
ObjectDBX Classes
 90
     4095
280
     0
281
     0
  0
CLASS
  1
MATERIAL
  2
AcDbMaterial
  3
ObjectDBX Classes
 90
     1153
280
     0
281
     0
  0
CLASS
  1
DICTIONARYVAR
  2
AcDbDictionaryVar
  3
ObjectDBX Classes
 90
        0
280
     0
281
     0
  0
CLASS
  1
ACDBPLACEHOLDER
  2
AcDbPlaceHolder
  3
ObjectDBX Classes
 90
        0
280
     0
281
     0
  0
CLASS
  1
LAYOUT
  2
AcDbLayout
  3
ObjectDBX Classes
 90
        0
280
     0
281
     0
  0
ENDSEC
  0
SECTION
  2
TABLES
  0
TABLE
  2
VPORT
  5
8
330
0
100
AcDbSymbolTable
 70
     1
  0
VPORT
  5
29
330
8
100
AcDbSymbolTableRecord
100
AcDbViewportTableRecord
  2
*Active
 70
     0
 10
0.0
 20
0.0
 11
1.0
 21
1.0
 12
-148.5000000000001
 22
105.0000000000001
 13
0.0
 23
0.0
 14
0.5
 24
0.5
 15
0.5
 25
0.5
 16
0.0
 26
0.0
 36
1.0
 17
0.0
 27
0.0
 37
0.0
 40
231.0000000000001
 41
1.60267857142857
 42
50.0
 43
0.0
 44
0.0
 50
0.0
 51
0.0
 71
     0
 72
   100
 73
     1
 74
     3
 75
     0
 76
     0
 77
     0
 78
     0
281
     0
 65
     1
110
0.0
120
0.0
130
0.0
111
1.0
121
0.0
131
0.0
112
0.0
122
1.0
132
0.0
 79
     0
146
0.0
  0
ENDTAB
  0
TABLE
  2
LTYPE
  5
5
330
0
100
AcDbSymbolTable
 70
     8
  0
LTYPE
  5
14
330
5
100
AcDbSymbolTableRecord
100
AcDbLinetypeTableRecord
  2
ByBlock
 70
     0
  3

 72
    65
 73
     0
 40
0.0
  0
LTYPE
  5
15
330
5
100
AcDbSymbolTableRecord
100
AcDbLinetypeTableRecord
  2
ByLayer
 70
     0
  3

 72
    65
 73
     0
 40
0.0
  0
LTYPE
  5
16
330
5
100
AcDbSymbolTableRecord
100
AcDbLinetypeTableRecord
  2
Continuous
 70
     0
  3
Solid line
 72
    65
 73
     0
 40
0.0
  0
LTYPE
  5
3F
330
5
100
AcDbSymbolTableRecord
100
AcDbLinetypeTableRecord
  2
DASHED
 70
     0
  3
Dashed
 72
    65
 73
     2
 40
15.0
 49
7.0
 74
     0
 49
-8.0
 74
     0
  0
LTYPE
  5
40
330
5
100
AcDbSymbolTableRecord
100
AcDbLinetypeTableRecord
  2
DOTTED
 70
     0
  3
Dotted
 72
    65
 73
     2
 40
1.0
 49
0.0
 74
     0
 49
-1.0
 74
     0
  0
LTYPE
  5
41
330
5
100
AcDbSymbolTableRecord
100
AcDbLinetypeTableRecord
  2
DOT_CENTER
 70
     0
  3
Dot_Center
 72
    65
 73
     4
 40
14.0
 49
12.0
 74
     0
 49
-1.0
 74
     0
 49
0.0
 74
     0
 49
-1.0
 74
     0
  0
LTYPE
  5
42
330
5
100
AcDbSymbolTableRecord
100
AcDbLinetypeTableRecord
  2
LONG_DASHED
 70
     0
  3
Long_Dashed
 72
    65
 73
     2
 40
15.0
 49
10.0
 74
     0
 49
-5.0
 74
     0
  0
LTYPE
  5
43
330
5
100
AcDbSymbolTableRecord
100
AcDbLinetypeTableRecord
  2
DASH_CENTER
 70
     0
  3
Dash_Center
 72
    65
 73
     4
 40
14.0
 49
11.0
 74
     0
 49
-1.0
 74
     0
 49
1.0
 74
     0
 49
-1.0
 74
     0
  0
LTYPE
  5
44
330
5
100
AcDbSymbolTableRecord
100
AcDbLinetypeTableRecord
  2
PHANTOM
 70
     0
  3
Phantom
 72
    65
 73
     6
 40
13.0
 49
10.0
 74
     0
 49
-1.0
 74
     0
 49
0.0
 74
     0
 49
-1.0
 74
     0
 49
0.0
 74
     0
 49
-1.0
 74
     0
  0
LTYPE
  5
45
330
5
100
AcDbSymbolTableRecord
100
AcDbLinetypeTableRecord
  2
CENTER_DASH_DASH
 70
     0
  3
Center_Dash_Dash
 72
    65
 73
     6
 40
14.0
 49
9.0
 74
     0
 49
-1.0
 74
     0
 49
1.0
 74
     0
 49
-1.0
 74
     0
 49
1.0
 74
     0
 49
-1.0
 74
     0
  0
ENDTAB
  0
TABLE
  2
LAYER
  5
2
330
0
100
AcDbSymbolTable
 70
     2
  0
LAYER
  5
10
330
2
100
AcDbSymbolTableRecord
100
AcDbLayerTableRecord
  2
0
 70
     0
 62
     7
  6
Continuous
370
    -3
390
F
  0
LAYER
  5
46
330
2
100
AcDbSymbolTableRecord
100
AcDbLayerTableRecord
  2
1
 70
     0
 62
     7
  6
Continuous
370
    -3
390
F
  0
ENDTAB
  0
TABLE
  2
STYLE
  5
3
330
0
100
AcDbSymbolTable
 70
     3
  0
STYLE
  5
11
330
3
100
AcDbSymbolTableRecord
100
AcDbTextStyleTableRecord
  2
Standard
 70
     0
 40
0.0
 41
1.0
 50
0.0
 71
     0
 42
0.2
  3
txt
  4

  0
STYLE
  5
9A
330
3
100
AcDbSymbolTableRecord
100
AcDbTextStyleTableRecord
  2
CONVERTER_11
 70
     0
 40
0.0
 41
1.2
 50
0.0
 71
     0
 42
0.2
  3
ARIAL.TTF
  4

  0
STYLE
  5
1C9
330
3
100
AcDbSymbolTableRecord
100
AcDbTextStyleTableRecord
  2
CONVERTER_12
 70
     0
 40
0.0
 41
0.95
 50
0.0
 71
     0
 42
0.2
  3
simplex.shx
  4

  0
ENDTAB
  0
TABLE
  2
VIEW
  5
6
330
0
100
AcDbSymbolTable
 70
     0
  0
ENDTAB
  0
TABLE
  2
UCS
  5
7
330
0
100
AcDbSymbolTable
 70
     0
  0
ENDTAB
  0
TABLE
  2
APPID
  5
9
330
0
100
AcDbSymbolTable
 70
     1
  0
APPID
  5
12
330
9
100
AcDbSymbolTableRecord
100
AcDbRegAppTableRecord
  2
ACAD
 70
     0
  0
ENDTAB
  0
TABLE
  2
DIMSTYLE
  5
A
330
0
100
AcDbSymbolTable
 70
     6
100
AcDbDimStyleTable
  0
DIMSTYLE
105
27
330
A
100
AcDbSymbolTableRecord
100
AcDbDimStyleTableRecord
  2
Standard
 70
     0
178
     0
340
11
  0
DIMSTYLE
105
1CD
102
{ACAD_REACTORS
330
1CE
102
}
330
A
100
AcDbSymbolTableRecord
100
AcDbDimStyleTableRecord
  2
ME10_DIM_10
 70
     0
 41
3.0
 42
0.5
 44
1.0
 73
     0
 74
     0
 77
     1
 78
     8
140
3.0
147
2.0
172
     1
173
     1
174
     1
175
     1
176
     2
177
     2
271
     2
178
     4
271
     2
340
1C9
  0
DIMSTYLE
105
1D8
102
{ACAD_REACTORS
330
1D9
102
}
330
A
100
AcDbSymbolTableRecord
100
AcDbDimStyleTableRecord
  2
ME10_DIM_11
 70
     0
 41
3.0
 42
0.5
 44
1.0
 73
     0
 74
     0
 77
     1
 78
     8
140
3.0
147
2.0
172
     1
173
     1
174
     1
175
     1
176
     2
177
     2
271
     2
178
     4
271
     2
340
1C9
  0
DIMSTYLE
105
1E3
102
{ACAD_REACTORS
330
1E4
102
}
330
A
100
AcDbSymbolTableRecord
100
AcDbDimStyleTableRecord
  2
ME10_DIM_12
 70
     0
 41
3.0
 42
0.5
 44
1.0
 73
     0
 74
     0
 77
     1
 78
     8
140
3.0
147
2.0
172
     1
173
     1
174
     1
175
     1
176
     2
177
     2
271
     2
178
     4
271
     2
340
1C9
  0
DIMSTYLE
105
1EE
102
{ACAD_REACTORS
330
1EF
102
}
330
A
100
AcDbSymbolTableRecord
100
AcDbDimStyleTableRecord
  2
ME10_DIM_13
 70
     0
 41
3.0
 42
0.5
 44
1.0
 73
     0
 74
     0
 77
     1
 78
     8
140
3.0
147
2.0
172
     1
173
     1
174
     1
175
     1
176
     2
177
     2
271
     2
178
     4
271
     2
340
1C9
  0
DIMSTYLE
105
1F9
102
{ACAD_REACTORS
330
1FA
102
}
330
A
100
AcDbSymbolTableRecord
100
AcDbDimStyleTableRecord
  2
ME10_DIM_14
 70
     0
  3
M<>
 41
3.0
 42
0.5
 44
1.0
 73
     0
 74
     0
 77
     1
 78
     8
140
3.0
147
2.0
172
     1
173
     1
174
     1
175
     1
176
     2
177
     2
271
     2
178
     4
271
     2
340
1C9
  0
ENDTAB
  0
TABLE
  2
BLOCK_RECORD
  5
1
330
0
100
AcDbSymbolTable
 70
     8
  0
BLOCK_RECORD
  5
1F
330
1
100
AcDbSymbolTableRecord
100
AcDbBlockTableRecord
  2
*Model_Space
340
22
  0
BLOCK_RECORD
  5
1B
330
1
100
AcDbSymbolTableRecord
100
AcDbBlockTableRecord
  2
*Paper_Space
340
1E
  0
BLOCK_RECORD
  5
23
330
1
100
AcDbSymbolTableRecord
100
AcDbBlockTableRecord
  2
*Paper_Space0
340
26
  0
BLOCK_RECORD
  5
47
330
1
100
AcDbSymbolTableRecord
100
AcDbBlockTableRecord
  2
_formato_A4
340
0
102
{BLKREFS
331
4B
102
}
  0
BLOCK_RECORD
  5
4A
330
1
100
AcDbSymbolTableRecord
100
AcDbBlockTableRecord
  2
A4_oriz
340
0
102
{BLKREFS
331
4E
102
}
  0
BLOCK_RECORD
  5
1C3
330
1
100
AcDbSymbolTableRecord
100
AcDbBlockTableRecord
  2
*D3
340
0
  0
BLOCK_RECORD
  5
1CF
330
1
100
AcDbSymbolTableRecord
100
AcDbBlockTableRecord
  2
*D4
340
0
  0
BLOCK_RECORD
  5
1DA
330
1
100
AcDbSymbolTableRecord
100
AcDbBlockTableRecord
  2
*D5
340
0
  0
BLOCK_RECORD
  5
1E5
330
1
100
AcDbSymbolTableRecord
100
AcDbBlockTableRecord
  2
*D6
340
0
  0
BLOCK_RECORD
  5
1F0
330
1
100
AcDbSymbolTableRecord
100
AcDbBlockTableRecord
  2
*D7
340
0
  0
ENDTAB
  0
ENDSEC
  0
SECTION
  2
BLOCKS
  0
BLOCK
  5
20
330
1F
100
AcDbEntity
  8
0
100
AcDbBlockBegin
  2
*Model_Space
 70
     0
 10
0.0
 20
0.0
 30
0.0
  3
*Model_Space
  1

  0
ENDBLK
  5
21
330
1F
100
AcDbEntity
  8
0
100
AcDbBlockEnd
  0
BLOCK
  5
1C
330
1B
100
AcDbEntity
 67
     1
  8
0
100
AcDbBlockBegin
  2
*Paper_Space
 70
     0
 10
0.0
 20
0.0
 30
0.0
  3
*Paper_Space
  1

  0
ENDBLK
  5
1D
330
1B
100
AcDbEntity
 67
     1
  8
0
100
AcDbBlockEnd
  0
BLOCK
  5
24
330
23
100
AcDbEntity
  8
0
100
AcDbBlockBegin
  2
*Paper_Space0
 70
     0
 10
0.0
 20
0.0
 30
0.0
  3
*Paper_Space0
  1

  0
ENDBLK
  5
25
330
23
100
AcDbEntity
  8
0
100
AcDbBlockEnd
  0
BLOCK
  5
48
330
47
100
AcDbEntity
  8
0
100
AcDbBlockBegin
  2
_formato_A4
 70
     0
 10
0.0
 20
0.0
 30
0.0
  3
_formato_A4
  1

  0
LINE
  5
4F
330
47
100
AcDbEntity
  8
1
  6
Continuous
 62
     7
100
AcDbLine
 10
-189.0000000000001
 20
4.99999999999991
 30
0.0
 11
-189.0000000000001
 21
40.0
 31
0.0
  0
LINE
  5
50
330
47
100
AcDbEntity
  8
1
  6
Continuous
 62
     7
100
AcDbLine
 10
-189.0000000000001
 20
20.0
 30
0.0
 11
-5.0
 21
20.0
 31
0.0
  0
LINE
  5
51
330
47
100
AcDbEntity
  8
1
  6
Continuous
 62
     7
100
AcDbLine
 10
-292.0000000000003
 20
189.0
 30
0.0
 11
-292.0000000000003
 21
5.0
 31
0.0
  0
LINE
  5
52
330
47
100
AcDbEntity
  8
1
  6
Continuous
 62
     7
100
AcDbLine
 10
-164.0000000000001
 20
35.0
 30
0.0
 11
-164.0000000000001
 21
40.0
 31
0.0
  0
LINE
  5
53
330
47
100
AcDbEntity
  8
1
  6
Continuous
 62
     7
100
AcDbLine
 10
-182.0000000000001
 20
35.0
 30
0.0
 11
-182.0000000000001
 21
40.0
 31
0.0
  0
LINE
  5
54
330
47
100
AcDbEntity
  8
1
  6
Continuous
 62
     7
100
AcDbLine
 10
-189.0000000000001
 20
40.0
 30
0.0
 11
-5.0
 21
40.0
 31
0.0
  0
LINE
  5
55
330
47
100
AcDbEntity
  8
1
  6
Continuous
 62
     7
100
AcDbLine
 10
-164.0000000000001
 20
30.0
 30
0.0
 11
-164.0000000000001
 21
35.0
 31
0.0
  0
LINE
  5
56
330
47
100
AcDbEntity
  8
1
  6
Continuous
 62
     7
100
AcDbLine
 10
-182.0000000000001
 20
30.0
 30
0.0
 11
-182.0000000000001
 21
35.0
 31
0.0
  0
LINE
  5
57
330
47
100
AcDbEntity
  8
1
  6
Continuous
 62
     7
100
AcDbLine
 10
-189.0000000000001
 20
35.0
 30
0.0
 11
-5.0
 21
35.0
 31
0.0
  0
LINE
  5
58
330
47
100
AcDbEntity
  8
1
  6
Continuous
 62
     7
100
AcDbLine
 10
-164.0000000000001
 20
25.0
 30
0.0
 11
-164.0000000000001
 21
30.0
 31
0.0
  0
LINE
  5
59
330
47
100
AcDbEntity
  8
1
  6
Continuous
 62
     7
100
AcDbLine
 10
-182.0000000000001
 20
25.0
 30
0.0
 11
-182.0000000000001
 21
30.0
 31
0.0
  0
LINE
  5
5A
330
47
100
AcDbEntity
  8
1
  6
Continuous
 62
     7
100
AcDbLine
 10
-189.0000000000001
 20
30.0
 30
0.0
 11
-5.0
 21
30.0
 31
0.0
  0
LINE
  5
5B
330
47
100
AcDbEntity
  8
1
  6
Continuous
 62
     7
100
AcDbLine
 10
-164.0000000000001
 20
20.0
 30
0.0
 11
-164.0000000000001
 21
25.0
 31
0.0
  0
LINE
  5
5C
330
47
100
AcDbEntity
  8
1
  6
Continuous
 62
     7
100
AcDbLine
 10
-182.0000000000001
 20
20.0
 30
0.0
 11
-182.0000000000001
 21
25.0
 31
0.0
  0
LINE
  5
5D
330
47
100
AcDbEntity
  8
1
  6
Continuous
 62
     7
100
AcDbLine
 10
-189.0000000000001
 20
25.0
 30
0.0
 11
-5.0
 21
25.0
 31
0.0
  0
LINE
  5
5E
102
{ACAD_REACTORS
330
9F
102
}
330
47
100
AcDbEntity
  8
1
  6
Continuous
 62
     7
100
AcDbLine
 10
-14.1571251600941
 20
10.55800208038031
 30
0.0
 11
-15.49045849342701
 21
9.7887713111497
 31
0.0
  0
LINE
  5
5F
102
{ACAD_REACTORS
330
9F
102
}
330
47
100
AcDbEntity
  8
1
  6
Continuous
 62
     7
100
AcDbLine
 10
-15.32369931125709
 20
10.65463653264791
 30
0.0
 11
-14.49027346241996
 21
11.13545913774621
 31
0.0
  0
LINE
  5
60
102
{ACAD_REACTORS
330
9F
102
}
330
47
100
AcDbEntity
  8
1
  6
Continuous
 62
     7
100
AcDbLine
 10
-15.32369931125709
 20
12.1666666666666
 30
0.0
 11
-15.32369931125709
 21
10.65463653264791
 31
0.0
  0
LINE
  5
61
102
{ACAD_REACTORS
330
9F
102
}
330
47
100
AcDbEntity
  8
1
  6
Continuous
 62
     7
100
AcDbLine
 10
-14.32369931125709
 20
12.1666666666666
 30
0.0
 11
-15.32369931125709
 21
12.1666666666666
 31
0.0
  0
LINE
  5
62
102
{ACAD_REACTORS
330
9F
102
}
330
47
100
AcDbEntity
  8
1
  6
Continuous
 62
     7
100
AcDbLine
 10
-15.32369931125709
 20
12.83333333333331
 30
0.0
 11
-14.32369931125709
 21
12.83333333333331
 31
0.0
  0
LINE
  5
63
102
{ACAD_REACTORS
330
9F
102
}
330
47
100
AcDbEntity
  8
1
  6
Continuous
 62
     7
100
AcDbLine
 10
-15.32369931125709
 20
14.34536346735192
 30
0.0
 11
-15.32369931125709
 21
12.83333333333331
 31
0.0
  0
LINE
  5
64
102
{ACAD_REACTORS
330
9F
102
}
330
47
100
AcDbEntity
  8
1
  6
Continuous
 62
     7
100
AcDbLine
 10
-14.49027346241996
 20
13.86454086225382
 30
0.0
 11
-15.32369931125709
 21
14.34536346735192
 31
0.0
  0
LINE
  5
65
102
{ACAD_REACTORS
330
9F
102
}
330
47
100
AcDbEntity
  8
1
  6
Continuous
 62
     7
100
AcDbLine
 10
-15.49045849342701
 20
15.2112286888503
 30
0.0
 11
-14.1571251600941
 21
14.44199791961941
 31
0.0
  0
LINE
  5
66
102
{ACAD_REACTORS
330
A0
102
}
330
47
100
AcDbEntity
  8
1
  6
Continuous
 62
     7
100
AcDbLine
 10
-22.65703264459103
 20
10.8467306090632
 30
0.0
 11
-22.65703264459103
 21
14.15326939093671
 31
0.0
  0
LINE
  5
67
102
{ACAD_REACTORS
330
A0
102
}
330
47
100
AcDbEntity
  8
1
  6
Continuous
 62
     7
100
AcDbLine
 10
-21.99036597792406
 20
11.0392519172633
 30
0.0
 11
-21.99036597792406
 21
10.8467306090632
 31
0.0
  0
LINE
  5
68
102
{ACAD_REACTORS
330
A0
102
}
330
47
100
AcDbEntity
  8
1
  6
Continuous
 62
     7
100
AcDbLine
 10
-21.99036597792406
 20
14.15326939093671
 30
0.0
 11
-21.99036597792406
 21
11.0392519172633
 31
0.0
  0
LINE
  5
69
102
{ACAD_REACTORS
330
A1
102
}
330
47
100
AcDbEntity
  8
1
  6
Continuous
 62
     7
100
AcDbLine
 10
-18.82360679575413
 20
8.44261746499581
 30
0.0
 11
-20.99018094691701
 21
9.69256409066691
 31
0.0
  0
LINE
  5
6A
102
{ACAD_REACTORS
330
A1
102
}
330
47
100
AcDbEntity
  8
1
  6
Continuous
 62
     7
100
AcDbLine
 10
-20.65703264459103
 20
10.2700211480327
 30
0.0
 11
-18.49045849342701
 21
9.0200745223616
 31
0.0
  0
LINE
  5
6B
102
{ACAD_REACTORS
330
A1
102
}
330
47
100
AcDbEntity
  8
1
  6
Continuous
 62
     7
100
AcDbLine
 10
-20.65703264459103
 20
14.9225001601674
 30
0.0
 11
-20.65703264459103
 21
10.2700211480327
 31
0.0
  0
LINE
  5
6C
102
{ACAD_REACTORS
330
A1
102
}
330
47
100
AcDbEntity
  8
1
  6
Continuous
 62
     7
100
AcDbLine
 10
-21.32369931125709
 20
10.27002114803261
 30
0.0
 11
-21.32369931125709
 21
14.9225001601674
 31
0.0
  0
LINE
  5
6D
102
{ACAD_REACTORS
330
A2
102
}
330
47
100
AcDbEntity
  8
1
  6
Continuous
 62
     7
100
AcDbLine
 10
-17.15146632821416
 20
15.86370041827232
 30
0.0
 11
-18.32369931125709
 21
13.83333333333331
 31
0.0
  0
LINE
  5
6E
102
{ACAD_REACTORS
330
A2
102
}
330
47
100
AcDbEntity
  8
1
  6
Continuous
 62
     7
100
AcDbLine
 10
-16.65703264459103
 20
9.3082690706018
 30
0.0
 11
-16.65703264459103
 21
15.7312173120346
 31
0.0
  0
LINE
  5
6F
102
{ACAD_REACTORS
330
A2
102
}
330
47
100
AcDbEntity
  8
1
  6
Continuous
 62
     7
100
AcDbLine
 10
-17.32369931125709
 20
12.5
 30
0.0
 11
-17.32369931125709
 21
9.3082690706018
 31
0.0
  0
LINE
  5
70
102
{ACAD_REACTORS
330
A2
102
}
330
47
100
AcDbEntity
  8
1
  6
Continuous
 62
     7
100
AcDbLine
 10
-19.32369931125709
 20
10.84758507263291
 30
0.0
 11
-19.32369931125709
 21
12.5
 31
0.0
  0
LINE
  5
71
102
{ACAD_REACTORS
330
A2
102
}
330
47
100
AcDbEntity
  8
1
  6
Continuous
 62
     7
100
AcDbLine
 10
-19.99036597792406
 20
12.5
 30
0.0
 11
-19.99036597792406
 21
10.84758507263291
 31
0.0
  0
LINE
  5
72
102
{ACAD_REACTORS
330
A2
102
}
330
47
100
AcDbEntity
  8
1
  6
Continuous
 62
     7
100
AcDbLine
 10
-19.49593229430116
 20
15.86370041827232
 30
0.0
 11
-18.32369931125709
 21
13.83333333333331
 31
0.0
  0
LINE
  5
73
102
{ACAD_REACTORS
330
A2
102
}
330
47
100
AcDbEntity
  8
1
  6
Continuous
 62
     7
100
AcDbLine
 10
-19.99036597792406
 20
12.5
 30
0.0
 11
-19.99036597792406
 21
15.7312173120346
 31
0.0
  0
LINE
  5
74
330
47
100
AcDbEntity
  8
1
  6
Continuous
 62
     7
100
AcDbLine
 10
-18.32369931125709
 20
7.5
 30
0.0
 11
-26.74013458639911
 21
12.35563573565861
 31
0.0
  0
LINE
  5
75
330
47
100
AcDbEntity
  8
1
  6
Continuous
 62
     7
100
AcDbLine
 10
-9.90726403611609
 20
12.35563573565861
 30
0.0
 11
-18.32369931125709
 21
7.5
 31
0.0
  0
LINE
  5
76
330
47
100
AcDbEntity
  8
1
  6
Continuous
 62
     7
100
AcDbLine
 10
-18.32369931125709
 20
17.5
 30
0.0
 11
-9.90726403611609
 21
12.64436426434131
 31
0.0
  0
LINE
  5
77
330
47
100
AcDbEntity
  8
1
  6
Continuous
 62
     7
100
AcDbLine
 10
-26.74013458639911
 20
12.64436426434131
 30
0.0
 11
-18.32369931125709
 21
17.5
 31
0.0
  0
LINE
  5
78
102
{ACAD_REACTORS
330
A2
102
}
330
47
100
AcDbEntity
  8
1
  6
Continuous
 62
     7
100
AcDbLine
 10
-19.32369931125709
 20
14.23205080756881
 30
0.0
 11
-19.32369931125709
 21
12.5
 31
0.0
  0
LINE
  5
79
102
{ACAD_REACTORS
330
A2
102
}
330
47
100
AcDbEntity
  8
1
  6
Continuous
 62
     7
100
AcDbLine
 10
-18.46803687855504
 20
12.75
 30
0.0
 11
-19.32369931125709
 21
14.23205080756881
 31
0.0
  0
LINE
  5
7A
102
{ACAD_REACTORS
330
A2
102
}
330
47
100
AcDbEntity
  8
1
  6
Continuous
 62
     7
100
AcDbLine
 10
-17.32369931125709
 20
14.23205080756881
 30
0.0
 11
-18.17936174396004
 21
12.75
 31
0.0
  0
LINE
  5
7B
102
{ACAD_REACTORS
330
A2
102
}
330
47
100
AcDbEntity
  8
1
  6
Continuous
 62
     7
100
AcDbLine
 10
-17.32369931125709
 20
12.5
 30
0.0
 11
-17.32369931125709
 21
14.23205080756881
 31
0.0
  0
LINE
  5
7C
102
{ACAD_REACTORS
330
9F
102
}
330
47
100
AcDbEntity
  8
1
  6
Continuous
 62
     7
100
AcDbLine
 10
-15.99036597792406
 20
10.0774998398326
 30
0.0
 11
-15.99036597792406
 21
14.9225001601674
 31
0.0
  0
LINE
  5
7D
330
47
100
AcDbEntity
  8
1
  6
Continuous
 62
     7
100
AcDbLine
 10
-5.0
 20
189.0
 30
0.0
 11
-292.0000000000003
 21
189.0
 31
0.0
  0
LINE
  5
7E
330
47
100
AcDbEntity
  8
1
  6
Continuous
 62
     7
100
AcDbLine
 10
-5.0
 20
5.0
 30
0.0
 11
-5.0
 21
189.0
 31
0.0
  0
LINE
  5
7F
330
47
100
AcDbEntity
  8
1
  6
Continuous
 62
     7
100
AcDbLine
 10
-292.0000000000003
 20
5.0
 30
0.0
 11
-5.0
 21
5.0
 31
0.0
  0
LINE
  5
80
330
47
100
AcDbEntity
  8
1
  6
Continuous
 62
     7
100
AcDbLine
 10
0.0
 20
0.0
 30
0.0
 11
0.0
 21
210.0000000000001
 31
0.0
  0
LINE
  5
81
330
47
100
AcDbEntity
  8
1
  6
Continuous
 62
     7
100
AcDbLine
 10
0.0
 20
210.0000000000001
 30
0.0
 11
-297.0000000000002
 21
210.0000000000001
 31
0.0
  0
LINE
  5
82
330
47
100
AcDbEntity
  8
1
  6
Continuous
 62
     7
100
AcDbLine
 10
-297.0000000000002
 20
210.0000000000001
 30
0.0
 11
-297.0000000000002
 21
0.0
 31
0.0
  0
LINE
  5
83
330
47
100
AcDbEntity
  8
1
  6
Continuous
 62
     7
100
AcDbLine
 10
-297.0000000000002
 20
0.0
 30
0.0
 11
0.0
 21
0.0
 31
0.0
  0
LINE
  5
84
330
47
100
AcDbEntity
  8
1
  6
Continuous
 62
     7
100
AcDbLine
 10
-148.5000000000001
 20
210.0000000000001
 30
0.0
 11
-148.5000000000001
 21
195.0000000000001
 31
0.0
  0
LINE
  5
85
330
47
100
AcDbEntity
  8
1
  6
Continuous
 62
     7
100
AcDbLine
 10
-189.0000000000001
 20
12.5
 30
0.0
 11
-159.0000000000001
 21
12.5
 31
0.0
  0
LINE
  5
86
330
47
100
AcDbEntity
  8
1
  6
Continuous
 62
     7
100
AcDbLine
 10
-159.0000000000001
 20
20.0
 30
0.0
 11
-159.0000000000001
 21
5.0
 31
0.0
  0
LINE
  5
87
330
47
100
AcDbEntity
  8
1
  6
Continuous
 62
     7
100
AcDbLine
 10
-31.6473986225152
 20
20.0
 30
0.0
 11
-31.6473986225152
 21
5.0
 31
0.0
  0
LINE
  5
88
330
47
100
AcDbEntity
  8
1
  6
Continuous
 62
     7
100
AcDbLine
 10
-49.00000000000006
 20
20.0
 30
0.0
 11
-49.00000000000006
 21
5.0
 31
0.0
  0
ARC
  5
89
102
{ACAD_REACTORS
330
9F
102
}
330
47
100
AcDbEntity
  8
1
  6
Continuous
 62
     7
100
AcDbCircle
 10
-14.32369931125709
 20
10.8467306090632
 30
0.0
 40
0.3333333333332527
100
AcDbArc
 50
299.9816393688172
 51
119.981639368789
  0
ARC
  5
8A
102
{ACAD_REACTORS
330
9F
102
}
330
47
100
AcDbEntity
  8
1
  6
Continuous
 62
     7
100
AcDbCircle
 10
-14.32369931125709
 20
12.5
 30
0.0
 40
0.3333333333333997
100
AcDbArc
 50
270.0
 51
90.0
  0
ARC
  5
8B
102
{ACAD_REACTORS
330
9F
102
}
330
47
100
AcDbEntity
  8
1
  6
Continuous
 62
     7
100
AcDbCircle
 10
-14.32369931125709
 20
14.15326939093671
 30
0.0
 40
0.3333333333331923
100
AcDbArc
 50
240.0183606312007
 51
60.01836063116643
  0
ARC
  5
8C
102
{ACAD_REACTORS
330
A0
102
}
330
47
100
AcDbEntity
  8
1
  6
Continuous
 62
     7
100
AcDbCircle
 10
-22.32369931125709
 20
10.8467306090632
 30
0.0
 40
0.3333333333339397
100
AcDbArc
 50
180.0
 51
0.0
  0
ARC
  5
8D
102
{ACAD_REACTORS
330
A0
102
}
330
47
100
AcDbEntity
  8
1
  6
Continuous
 62
     7
100
AcDbCircle
 10
-22.32369931125709
 20
14.15326939093671
 30
0.0
 40
0.3333333333330302
100
AcDbArc
 50
0.0
 51
180.0
  0
ARC
  5
8E
102
{ACAD_REACTORS
330
A1
102
}
330
47
100
AcDbEntity
  8
1
  6
Continuous
 62
     7
100
AcDbCircle
 10
-18.65703264459103
 20
8.7313459936787
 30
0.0
 40
0.3333333333333123
100
AcDbArc
 50
240.0183606311668
 51
60.01836063102982
  0
ARC
  5
8F
102
{ACAD_REACTORS
330
A1
102
}
330
47
100
AcDbEntity
  8
1
  6
Continuous
 62
     7
100
AcDbCircle
 10
-20.99036597792406
 20
14.9225001601674
 30
0.0
 40
0.3333333333330302
100
AcDbArc
 50
0.0
 51
180.0
  0
ARC
  5
90
102
{ACAD_REACTORS
330
A2
102
}
330
47
100
AcDbEntity
  8
1
  6
Continuous
 62
     7
100
AcDbCircle
 10
-16.921998857066
 20
15.7312173120346
 30
0.0
 40
0.2649662124749703
100
AcDbArc
 50
0.0
 51
149.9999999999873
  0
ARC
  5
91
102
{ACAD_REACTORS
330
A2
102
}
330
47
100
AcDbEntity
  8
1
  6
Continuous
 62
     7
100
AcDbCircle
 10
-16.99036597792406
 20
9.3082690706018
 30
0.0
 40
0.3333333333330302
100
AcDbArc
 50
180.0
 51
0.0
  0
ARC
  5
92
102
{ACAD_REACTORS
330
A2
102
}
330
47
100
AcDbEntity
  8
1
  6
Continuous
 62
     7
100
AcDbCircle
 10
-19.65703264459103
 20
10.84758507263291
 30
0.0
 40
0.3333333333330302
100
AcDbArc
 50
180.0
 51
0.0
  0
ARC
  5
93
102
{ACAD_REACTORS
330
A2
102
}
330
47
100
AcDbEntity
  8
1
  6
Continuous
 62
     7
100
AcDbCircle
 10
-19.7253997654492
 20
15.7312173120346
 30
0.0
 40
0.2649662124752362
100
AcDbArc
 50
30.00000000002536
 51
180.0
  0
ARC
  5
94
102
{ACAD_REACTORS
330
9F
102
}
330
47
100
AcDbEntity
  8
1
  6
Continuous
 62
     7
100
AcDbCircle
 10
-15.65703264459103
 20
10.0774998398326
 30
0.0
 40
0.3333333333330302
100
AcDbArc
 50
180.0
 51
299.98163936897
  0
ARC
  5
95
102
{ACAD_REACTORS
330
9F
102
}
330
47
100
AcDbEntity
  8
1
  6
Continuous
 62
     7
100
AcDbCircle
 10
-15.65703264459103
 20
14.9225001601674
 30
0.0
 40
0.3333333333337752
100
AcDbArc
 50
60.01836063103012
 51
180.0
  0
ARC
  5
96
330
47
100
AcDbEntity
  8
1
  6
Continuous
 62
     7
100
AcDbCircle
 10
-9.99055111169696
 20
12.5
 30
0.0
 40
0.1666666666662654
100
AcDbArc
 50
299.9816393686406
 51
60.01836063134561
  0
ARC
  5
97
330
47
100
AcDbEntity
  8
1
  6
Continuous
 62
     7
100
AcDbCircle
 10
-26.65684751081699
 20
12.5
 30
0.0
 40
0.1666666666668193
100
AcDbArc
 50
119.9816393690257
 51
240.018360630988
  0
ARC
  5
98
102
{ACAD_REACTORS
330
A1
102
}
330
47
100
AcDbEntity
  8
1
  6
Continuous
 62
     7
100
AcDbCircle
 10
-20.65703264459103
 20
10.2700211480327
 30
0.0
 40
0.6666666666660603
100
AcDbArc
 50
180.0000000000078
 51
240.0183606311834
  0
ARC
  5
99
102
{ACAD_REACTORS
330
A2
102
}
330
47
100
AcDbEntity
  8
1
  6
Continuous
 62
     7
100
AcDbCircle
 10
-18.32369931125709
 20
12.83333333333331
 30
0.0
 40
0.1666666666671255
100
AcDbArc
 50
209.9999999999
 51
329.9999999999455
  0
MTEXT
  5
9B
330
47
100
AcDbEntity
  8
1
 62
     7
100
AcDbMText
 10
-40.32369931125709
 20
16.26063942075601
 30
0.0
 40
3.0
 41
0.0
 71
     5
 72
     1
  1
Scale
  7
CONVERTER_11
 73
     1
 44
1.32052821128451
  0
MTEXT
  5
9C
330
47
100
AcDbEntity
  8
1
 62
     7
100
AcDbMText
 10
-187.0000000000001
 20
8.75
 30
0.0
 40
3.0
 41
0.0
 71
     4
 72
     1
  1
Sign.
  7
CONVERTER_11
 73
     1
 44
1.32052821128451
  0
MTEXT
  5
9D
330
47
100
AcDbEntity
  8
1
 62
     7
100
AcDbMText
 10
-187.0000000000001
 20
16.26063942075601
 30
0.0
 40
3.0
 41
0.0
 71
     4
 72
     1
  1
Date
  7
CONVERTER_11
 73
     1
 44
1.32052821128451
  0
MTEXT
  5
9E
330
47
100
AcDbEntity
  8
1
 62
     7
100
AcDbMText
 10
-145.5000000000001
 20
194.0000000000001
 30
0.0
 40
4.0
 41
0.0
 71
     5
 72
     1
  1
Diritti riservati      All rights reserved
  7
CONVERTER_11
 73
     1
 44
1.32052821128451
  0
HATCH
  5
9F
330
47
100
AcDbEntity
  8
1
  6
Continuous
 62
     7
100
AcDbHatch
 10
0.0
 20
0.0
 30
0.0
210
0.0
220
0.0
230
1.0
  2
SOLID
 70
     1
 71
     1
 91
        1
 92
        1
 93
       14
 72
     2
 10
-15.65703264459103
 20
14.9225001601674
 40
0.3333333333337752
 50
60.01836063103012
 51
180.0
 73
     1
 72
     1
 10
-15.99036597792406
 20
14.9225001601674
 11
-15.99036597792406
 21
10.0774998398326
 72
     2
 10
-15.65703264459103
 20
10.0774998398326
 40
0.3333333333330302
 50
180.0
 51
299.98163936897
 73
     1
 72
     1
 10
-15.49045849342701
 20
9.788771311149702
 11
-14.1571251600941
 21
10.55800208038031
 72
     2
 10
-14.32369931125709
 20
10.8467306090632
 40
0.3333333333332527
 50
299.9816393688172
 51
479.9816393687889
 73
     1
 72
     1
 10
-14.49027346241996
 20
11.13545913774621
 11
-15.32369931125709
 21
10.65463653264791
 72
     1
 10
-15.32369931125709
 20
10.65463653264791
 11
-15.32369931125709
 21
12.1666666666666
 72
     1
 10
-15.32369931125709
 20
12.1666666666666
 11
-14.32369931125709
 21
12.1666666666666
 72
     2
 10
-14.32369931125709
 20
12.5
 40
0.3333333333333997
 50
270.0
 51
450.0
 73
     1
 72
     1
 10
-14.32369931125709
 20
12.83333333333331
 11
-15.32369931125709
 21
12.83333333333331
 72
     1
 10
-15.32369931125709
 20
12.83333333333331
 11
-15.32369931125709
 21
14.34536346735192
 72
     1
 10
-15.32369931125709
 20
14.34536346735192
 11
-14.49027346241996
 21
13.86454086225382
 72
     2
 10
-14.32369931125709
 20
14.15326939093671
 40
0.3333333333331923
 50
240.0183606312007
 51
420.0183606311664
 73
     1
 72
     1
 10
-14.1571251600941
 20
14.44199791961941
 11
-15.49045849342701
 21
15.2112286888503
 97
       14
330
8B
330
64
330
63
330
62
330
8A
330
61
330
60
330
5F
330
89
330
5E
330
94
330
7C
330
95
330
65
 75
     0
 76
     1
 98
        1
 10
0.0
 20
0.0
  0
HATCH
  5
A0
330
47
100
AcDbEntity
  8
1
  6
Continuous
 62
     7
100
AcDbHatch
 10
0.0
 20
0.0
 30
0.0
210
0.0
220
0.0
230
1.0
  2
SOLID
 70
     1
 71
     1
 91
        1
 92
        1
 93
        5
 72
     2
 10
-22.32369931125709
 20
14.15326939093671
 40
0.3333333333330302
 50
0.0
 51
180.0
 73
     1
 72
     1
 10
-22.65703264459103
 20
14.15326939093671
 11
-22.65703264459103
 21
10.8467306090632
 72
     2
 10
-22.32369931125709
 20
10.8467306090632
 40
0.3333333333339397
 50
180.0
 51
360.0
 73
     1
 72
     1
 10
-21.99036597792406
 20
10.8467306090632
 11
-21.99036597792406
 21
11.0392519172633
 72
     1
 10
-21.99036597792406
 20
11.0392519172633
 11
-21.99036597792406
 21
14.15326939093671
 97
        5
330
8D
330
66
330
8C
330
67
330
68
 75
     0
 76
     1
 98
        1
 10
0.0
 20
0.0
  0
HATCH
  5
A1
330
47
100
AcDbEntity
  8
1
  6
Continuous
 62
     7
100
AcDbHatch
 10
0.0
 20
0.0
 30
0.0
210
0.0
220
0.0
230
1.0
  2
SOLID
 70
     1
 71
     1
 91
        1
 92
        1
 93
        7
 72
     2
 10
-20.99036597792406
 20
14.9225001601674
 40
0.3333333333330302
 50
0.0
 51
180.0
 73
     1
 72
     1
 10
-21.32369931125709
 20
14.9225001601674
 11
-21.32369931125709
 21
10.27002114803261
 72
     2
 10
-20.65703264459103
 20
10.2700211480327
 40
0.6666666666660603
 50
180.0000000000078
 51
240.0183606311834
 73
     1
 72
     1
 10
-20.99018094691701
 20
9.692564090666906
 11
-18.82360679575413
 21
8.442617464995806
 72
     2
 10
-18.65703264459103
 20
8.731345993678701
 40
0.3333333333333123
 50
240.0183606311668
 51
420.0183606310299
 73
     1
 72
     1
 10
-18.49045849342701
 20
9.020074522361597
 11
-20.65703264459103
 21
10.2700211480327
 72
     1
 10
-20.65703264459103
 20
10.2700211480327
 11
-20.65703264459103
 21
14.9225001601674
 97
        7
330
8F
330
6C
330
98
330
69
330
8E
330
6A
330
6B
 75
     0
 76
     1
 98
        1
 10
0.0
 20
0.0
  0
HATCH
  5
A2
330
47
100
AcDbEntity
  8
1
  6
Continuous
 62
     7
100
AcDbHatch
 10
0.0
 20
0.0
 30
0.0
210
0.0
220
0.0
230
1.0
  2
SOLID
 70
     1
 71
     1
 91
        1
 92
        1
 93
       16
 72
     2
 10
-16.921998857066
 20
15.7312173120346
 40
0.2649662124749703
 50
210.0000000000127
 51
360.0
 73
     0
 72
     1
 10
-16.65703264459103
 20
15.7312173120346
 11
-16.65703264459103
 21
9.308269070601796
 72
     2
 10
-16.99036597792406
 20
9.308269070601796
 40
0.3333333333330302
 50
0.0
 51
180.0
 73
     0
 72
     1
 10
-17.32369931125709
 20
9.308269070601796
 11
-17.32369931125709
 21
12.5
 72
     1
 10
-17.32369931125709
 20
12.5
 11
-17.32369931125709
 21
14.23205080756881
 72
     1
 10
-17.32369931125709
 20
14.23205080756881
 11
-18.17936174396004
 21
12.75
 72
     2
 10
-18.32369931125709
 20
12.83333333333331
 40
0.1666666666671255
 50
30.00000000005452
 51
150.0000000001
 73
     0
 72
     1
 10
-18.46803687855504
 20
12.75
 11
-19.32369931125709
 21
14.23205080756881
 72
     1
 10
-19.32369931125709
 20
14.23205080756881
 11
-19.32369931125709
 21
12.5
 72
     1
 10
-19.32369931125709
 20
12.5
 11
-19.32369931125709
 21
10.84758507263291
 72
     2
 10
-19.65703264459103
 20
10.84758507263291
 40
0.3333333333330302
 50
0.0
 51
180.0
 73
     0
 72
     1
 10
-19.99036597792406
 20
10.84758507263291
 11
-19.99036597792406
 21
12.5
 72
     1
 10
-19.99036597792406
 20
12.5
 11
-19.99036597792406
 21
15.7312173120346
 72
     2
 10
-19.7253997654492
 20
15.7312173120346
 40
0.2649662124752362
 50
180.0
 51
329.9999999999746
 73
     0
 72
     1
 10
-19.49593229430116
 20
15.86370041827232
 11
-18.32369931125709
 21
13.83333333333331
 72
     1
 10
-18.32369931125709
 20
13.83333333333331
 11
-17.15146632821416
 21
15.86370041827232
 97
       16
330
72
330
93
330
73
330
71
330
92
330
70
330
78
330
79
330
99
330
7A
330
7B
330
6F
330
91
330
6E
330
90
330
6D
 75
     0
 76
     1
 98
        1
 10
0.0
 20
0.0
  0
ENDBLK
  5
49
330
47
100
AcDbEntity
  8
0
100
AcDbBlockEnd
  0
BLOCK
  5
4C
330
4A
100
AcDbEntity
  8
0
100
AcDbBlockBegin
  2
A4_oriz
 70
     0
 10
0.0
 20
0.0
 30
0.0
  3
A4_oriz
  1

  0
INSERT
  5
4B
330
4A
100
AcDbEntity
  8
1
100
AcDbBlockReference
  2
_formato_A4
 10
0.0
 20
0.0
 30
0.0
  0
ENDBLK
  5
4D
330
4A
100
AcDbEntity
  8
0
100
AcDbBlockEnd
  0
BLOCK
  5
1CB
330
1C3
100
AcDbEntity
  8
0
100
AcDbBlockBegin
  2
*D3
 70
     1
 10
0.0
 20
0.0
 30
0.0
  3
*D3
  1

  0
LINE
  5
1C4
330
1C3
100
AcDbEntity
  8
1
  6
Continuous
 62
     2
100
AcDbLine
 10
-269.981232708526
 20
50.43108464917856
 30
0.0
 11
-131.9781354245842
 21
50.43108464917856
 31
0.0
  0
LINE
  5
1C5
330
1C3
100
AcDbEntity
  8
1
  6
Continuous
 62
     2
100
AcDbLine
 10
-131.9781354245842
 20
74.80618803085085
 30
0.0
 11
-131.9781354245842
 21
49.43108464917856
 31
0.0
  0
LINE
  5
1C6
330
1C3
100
AcDbEntity
  8
1
  6
Continuous
 62
     2
100
AcDbLine
 10
-269.981232708526
 20
74.80618803085085
 30
0.0
 11
-269.981232708526
 21
49.43108464917856
 31
0.0
  0
SOLID
  5
1C7
330
1C3
100
AcDbEntity
  8
1
 62
     2
100
AcDbTrace
 10
-266.981232708526
 20
50.82604214194075
 30
0.0
 11
-266.981232708526
 21
50.03612715641637
 31
0.0
 12
-269.981232708526
 22
50.43108464917856
 32
0.0
 13
-269.981232708526
 23
50.43108464917856
 33
0.0
  0
SOLID
  5
1C8
330
1C3
100
AcDbEntity
  8
1
 62
     2
100
AcDbTrace
 10
-134.9781354245842
 20
50.03612715641637
 30
0.0
 11
-134.9781354245842
 21
50.82604214194075
 31
0.0
 12
-131.9781354245842
 22
50.43108464917856
 32
0.0
 13
-131.9781354245842
 23
50.43108464917856
 33
0.0
  0
MTEXT
  5
1CA
330
1C3
100
AcDbEntity
  8
1
 62
     4
100
AcDbMText
 10
-204.1296840665551
 20
52.43108464917856
 30
0.0
 40
3.0
 41
0.0
 71
     7
 72
     1
  1
138
  7
CONVERTER_12
 11
0.9999999999970619
 21
2.424068405545306E-6
 31
0.0
 73
     1
 44
0.60024009603842
  0
ENDBLK
  5
1CC
330
1C3
100
AcDbEntity
  8
0
100
AcDbBlockEnd
  0
BLOCK
  5
1D6
330
1CF
100
AcDbEntity
  8
0
100
AcDbBlockBegin
  2
*D4
 70
     1
 10
0.0
 20
0.0
 30
0.0
  3
*D4
  1

  0
LINE
  5
1D0
330
1CF
100
AcDbEntity
  8
1
  6
Continuous
 62
     2
100
AcDbLine
 10
-260.9796840598024
 20
63.09200245016598
 30
0.0
 11
-140.9796840733076
 21
63.09200245016598
 31
0.0
  0
LINE
  5
1D1
330
1CF
100
AcDbEntity
  8
1
  6
Continuous
 62
     2
100
AcDbLine
 10
-140.9796840733076
 20
72.45191122992901
 30
0.0
 11
-140.9796840733076
 21
62.09200245016598
 31
0.0
  0
LINE
  5
1D2
330
1CF
100
AcDbEntity
  8
1
  6
Continuous
 62
     2
100
AcDbLine
 10
-260.9796840598024
 20
72.45191122992901
 30
0.0
 11
-260.9796840598024
 21
62.09200245016598
 31
0.0
  0
SOLID
  5
1D3
330
1CF
100
AcDbEntity
  8
1
 62
     2
100
AcDbTrace
 10
-257.9796840598024
 20
63.48695994292817
 30
0.0
 11
-257.9796840598024
 21
62.69704495740379
 31
0.0
 12
-260.9796840598024
 22
63.09200245016598
 32
0.0
 13
-260.9796840598024
 23
63.09200245016598
 33
0.0
  0
SOLID
  5
1D4
330
1CF
100
AcDbEntity
  8
1
 62
     2
100
AcDbTrace
 10
-143.9796840733076
 20
62.69704495740379
 30
0.0
 11
-143.9796840733076
 21
63.48695994292817
 31
0.0
 12
-140.9796840733076
 22
63.09200245016598
 32
0.0
 13
-140.9796840733076
 23
63.09200245016598
 33
0.0
  0
MTEXT
  5
1D5
330
1CF
100
AcDbEntity
  8
1
 62
     4
100
AcDbMText
 10
-204.129684066555
 20
65.09200245016598
 30
0.0
 40
3.0
 41
0.0
 71
     7
 72
     1
  1
120
  7
CONVERTER_12
 11
0.9999999999970619
 21
2.424068405545306E-6
 31
0.0
 73
     1
 44
0.60024009603842
  0
ENDBLK
  5
1D7
330
1CF
100
AcDbEntity
  8
0
100
AcDbBlockEnd
  0
BLOCK
  5
1E1
330
1DA
100
AcDbEntity
  8
0
100
AcDbBlockBegin
  2
*D5
 70
     1
 10
0.0
 20
0.0
 30
0.0
  3
*D5
  1

  0
LINE
  5
1DB
330
1DA
100
AcDbEntity
  8
1
  6
Continuous
 62
     2
100
AcDbLine
 10
-88.82976880562398
 20
63.01533501889014
 30
0.0
 11
-45.82976880562376
 21
63.01533501889014
 31
0.0
  0
LINE
  5
1DC
330
1DA
100
AcDbEntity
  8
1
  6
Continuous
 62
     2
100
AcDbLine
 10
-45.82976880562376
 20
72.45191122992713
 30
0.0
 11
-45.82976880562376
 21
62.01533501889014
 31
0.0
  0
LINE
  5
1DD
330
1DA
100
AcDbEntity
  8
1
  6
Continuous
 62
     2
100
AcDbLine
 10
-88.82976880562398
 20
72.45191122992713
 30
0.0
 11
-88.82976880562398
 21
62.01533501889014
 31
0.0
  0
SOLID
  5
1DE
330
1DA
100
AcDbEntity
  8
1
 62
     2
100
AcDbTrace
 10
-85.82976880562398
 20
63.41029251165233
 30
0.0
 11
-85.82976880562398
 21
62.62037752612795
 31
0.0
 12
-88.82976880562398
 22
63.01533501889014
 32
0.0
 13
-88.82976880562398
 23
63.01533501889014
 33
0.0
  0
SOLID
  5
1DF
330
1DA
100
AcDbEntity
  8
1
 62
     2
100
AcDbTrace
 10
-48.82976880562376
 20
62.62037752612795
 30
0.0
 11
-48.82976880562376
 21
63.41029251165233
 31
0.0
 12
-45.82976880562376
 22
63.01533501889014
 32
0.0
 13
-45.82976880562376
 23
63.01533501889014
 33
0.0
  0
MTEXT
  5
1E0
330
1DA
100
AcDbEntity
  8
1
 62
     4
100
AcDbMText
 10
-69.57976880562387
 20
65.01533501889014
 30
0.0
 40
3.0
 41
0.0
 71
     7
 72
     1
  1
43
  7
CONVERTER_12
 11
0.9999999999970619
 21
2.424068405545306E-6
 31
0.0
 73
     1
 44
0.60024009603842
  0
ENDBLK
  5
1E2
330
1DA
100
AcDbEntity
  8
0
100
AcDbBlockEnd
  0
BLOCK
  5
1EC
330
1E5
100
AcDbEntity
  8
0
100
AcDbBlockBegin
  2
*D6
 70
     1
 10
0.0
 20
0.0
 30
0.0
  3
*D6
  1

  0
LINE
  5
1E6
330
1E5
100
AcDbEntity
  8
1
  6
Continuous
 62
     2
100
AcDbLine
 10
-26.7703378746387
 20
148.7050580563501
 30
0.0
 11
-26.7703378746387
 21
72.70618803084889
 31
0.0
  0
LINE
  5
1E7
330
1E5
100
AcDbEntity
  8
1
  6
Continuous
 62
     2
100
AcDbLine
 10
-46.72976880562385
 20
72.70618803084889
 30
0.0
 11
-25.7703378746387
 21
72.70618803084889
 31
0.0
  0
LINE
  5
1E8
330
1E5
100
AcDbEntity
  8
1
  6
Continuous
 62
     2
100
AcDbLine
 10
-66.7866168204099
 20
148.7050580563501
 30
0.0
 11
-25.7703378746387
 21
148.7050580563501
 31
0.0
  0
SOLID
  5
1E9
330
1E5
100
AcDbEntity
  8
1
 62
     2
100
AcDbTrace
 10
-26.37538038187651
 20
145.7050580563501
 30
0.0
 11
-27.16529536740089
 21
145.7050580563501
 31
0.0
 12
-26.7703378746387
 22
148.7050580563501
 32
0.0
 13
-26.7703378746387
 23
148.7050580563501
 33
0.0
  0
SOLID
  5
1EA
330
1E5
100
AcDbEntity
  8
1
 62
     2
100
AcDbTrace
 10
-27.16529536740089
 20
75.70618803084889
 30
0.0
 11
-26.37538038187651
 21
75.70618803084889
 31
0.0
 12
-26.7703378746387
 22
72.70618803084889
 32
0.0
 13
-26.7703378746387
 23
72.70618803084889
 33
0.0
  0
MTEXT
  5
1EB
330
1E5
100
AcDbEntity
  8
1
 62
     4
100
AcDbMText
 10
-28.7703378746387
 20
108.4556230435995
 30
0.0
 40
3.0
 41
0.0
 71
     7
 72
     1
  1
76
  7
CONVERTER_12
 11
0.0
 21
1.0
 31
0.0
 73
     1
 44
0.60024009603842
  0
ENDBLK
  5
1ED
330
1E5
100
AcDbEntity
  8
0
100
AcDbBlockEnd
  0
BLOCK
  5
1F7
330
1F0
100
AcDbEntity
  8
0
100
AcDbBlockBegin
  2
*D7
 70
     1
 10
0.0
 20
0.0
 30
0.0
  3
*D7
  1

  0
LINE
  5
1F1
330
1F0
100
AcDbEntity
  8
1
  6
Continuous
 62
     2
100
AcDbLine
 10
-123.9450445741478
 20
151.3554600116156
 30
0.0
 11
-116.9991174674716
 21
111.9631498911275
 31
0.0
  0
LINE
  5
1F2
330
1F0
100
AcDbEntity
  8
1
  6
Continuous
 62
     2
100
AcDbLine
 10
-137.4172753675198
 20
148.979942232413
 30
0.0
 11
-122.9602368211356
 21
151.5291081892825
 31
0.0
  0
LINE
  5
1F3
330
1F0
100
AcDbEntity
  8
1
  6
Continuous
 62
     2
100
AcDbLine
 10
-130.4713482608437
 20
109.5876321119249
 30
0.0
 11
-116.0143097144594
 21
112.1367980687944
 31
0.0
  0
SOLID
  5
1F4
330
1F0
100
AcDbEntity
  8
1
 62
     2
100
AcDbTrace
 10
-123.0351428401646
 20
148.469620401453
 30
0.0
 11
-123.8130572421295
 21
148.3324531037049
 31
0.0
 12
-123.9450445741478
 22
151.3554600116156
 32
0.0
 13
-123.9450445741478
 23
151.3554600116156
 33
0.0
  0
SOLID
  5
1F5
330
1F0
100
AcDbEntity
  8
1
 62
     2
100
AcDbTrace
 10
-117.9090192014548
 20
114.8489895012901
 30
0.0
 11
-117.1311047994898
 21
114.9861567990382
 31
0.0
 12
-116.9991174674716
 22
111.9631498911275
 32
0.0
 13
-116.9991174674716
 23
111.9631498911275
 33
0.0
  0
MTEXT
  5
1F6
330
1F0
100
AcDbEntity
  8
1
 62
     4
100
AcDbMText
 10
-118.9817344851459
 20
134.724670705019
 30
0.0
 40
3.0
 41
0.0
 71
     7
 72
     1
  1
\C4;M\C4;40
  7
CONVERTER_12
 11
0.1736481776669068
 21
-0.9848077530122122
 31
0.0
 73
     1
 44
0.60024009603842
  0
ENDBLK
  5
1F8
330
1F0
100
AcDbEntity
  8
0
100
AcDbBlockEnd
  0
ENDSEC
  0
SECTION
  2
ENTITIES
  0
INSERT
  5
4E
330
1F
100
AcDbEntity
  8
0
100
AcDbBlockReference
  2
A4_oriz
 10
0.0
 20
0.0
 30
0.0
  0
LINE
  5
A3
330
1F
100
AcDbEntity
  8
0
  6
DASH_CENTER
 62
     2
100
AcDbLine
 10
-200.9796840665551
 20
137.783104829375
 30
0.0
 11
-200.9796840665551
 21
155.5126757692378
 31
0.0
  0
LINE
  5
A7
102
{ACAD_REACTORS
330
1FC
102
}
330
1F
100
AcDbEntity
  8
1
  6
Continuous
 62
     4
100
AcDbLine
 10
-200.9796840665571
 20
127.041151984294
 30
0.0
 11
-209.1411641902318
 21
131.7061880308509
 31
0.0
  0
LINE
  5
A8
102
{ACAD_REACTORS
330
1FC
102
}
330
1F
100
AcDbEntity
  8
1
  6
Continuous
 62
     4
100
AcDbLine
 10
-192.8183861621369
 20
131.7061880308509
 30
0.0
 11
-200.9796840665571
 21
127.041151984294
 31
0.0
  0
LINE
  5
A9
102
{ACAD_REACTORS
330
1FC
102
}
330
1F
100
AcDbEntity
  8
1
  6
Continuous
 62
     4
100
AcDbLine
 10
-200.9796840665571
 20
136.371224077408
 30
0.0
 11
-192.8183861621369
 21
131.7061880308509
 31
0.0
  0
LINE
  5
AA
102
{ACAD_REACTORS
330
1FC
102
}
330
1F
100
AcDbEntity
  8
1
  6
Continuous
 62
     4
100
AcDbLine
 10
-209.1411641902318
 20
131.7061880308509
 30
0.0
 11
-200.9796840665571
 21
136.371224077408
 31
0.0
  0
LINE
  5
AB
102
{ACAD_REACTORS
330
1FC
102
}
330
1F
100
AcDbEntity
  8
1
  6
Continuous
 62
     4
100
AcDbLine
 10
-201.1450415468721
 20
126.751859088072
 30
0.0
 11
-209.5592995193341
 21
131.561380909084
 31
0.0
  0
LINE
  5
AC
102
{ACAD_REACTORS
330
1FC
102
}
330
1F
100
AcDbEntity
  8
1
  6
Continuous
 62
     4
100
AcDbLine
 10
-192.3999739930727
 20
131.5615423780529
 30
0.0
 11
-200.8143238034749
 21
126.7518606786969
 31
0.0
  0
LINE
  5
AD
102
{ACAD_REACTORS
330
1FC
102
}
330
1F
100
AcDbEntity
  8
1
  6
Continuous
 62
     4
100
AcDbLine
 10
-200.8143238034749
 20
136.6605153830049
 30
0.0
 11
-192.3999739930727
 21
131.85083368365
 31
0.0
  0
LINE
  5
AE
102
{ACAD_REACTORS
330
1FC
102
}
330
1F
100
AcDbEntity
  8
1
  6
Continuous
 62
     4
100
AcDbLine
 10
-209.5592995193341
 20
131.8509951526192
 30
0.0
 11
-201.1450415468721
 21
136.6605169736302
 31
0.0
  0
LINE
  5
AF
102
{ACAD_REACTORS
330
1FD
102
}
330
1F
100
AcDbEntity
  8
1
  6
Continuous
 62
     4
100
AcDbLine
 10
-199.9800334851483
 20
133.4062385484792
 30
0.0
 11
-200.8353969334889
 21
131.9247055970201
 31
0.0
  0
LINE
  5
B0
102
{ACAD_REACTORS
330
1FD
102
}
330
1F
100
AcDbEntity
  8
1
  6
Continuous
 62
     4
100
AcDbLine
 10
-201.1239711996308
 20
131.9247055970201
 30
0.0
 11
-201.9793346479641
 21
133.4062385484792
 31
0.0
  0
LINE
  5
B1
102
{ACAD_REACTORS
330
1FD
102
}
330
1F
100
AcDbEntity
  8
1
  6
Continuous
 62
     4
100
AcDbLine
 10
-202.0239772422924
 20
134.8164292319199
 30
0.0
 11
-200.9796840665571
 21
133.0076603935428
 31
0.0
  0
LINE
  5
B2
102
{ACAD_REACTORS
330
1FD
102
}
330
1F
100
AcDbEntity
  8
1
  6
Continuous
 62
     4
100
AcDbLine
 10
-202.6457683688981
 20
134.6498208016857
 30
0.0
 11
-202.6457683688981
 21
130.2862454790031
 31
0.0
  0
LINE
  5
B3
102
{ACAD_REACTORS
330
1FD
102
}
330
1F
100
AcDbEntity
  8
1
  6
Continuous
 62
     4
100
AcDbLine
 10
-201.9793346479641
 20
130.2862454790031
 30
0.0
 11
-201.9793346479641
 21
133.4062385484792
 31
0.0
  0
LINE
  5
B4
102
{ACAD_REACTORS
330
1FD
102
}
330
1F
100
AcDbEntity
  8
1
  6
Continuous
 62
     4
100
AcDbLine
 10
-199.9800334851483
 20
133.4062385484792
 30
0.0
 11
-199.9800334851483
 21
128.7625552600167
 31
0.0
  0
LINE
  5
B5
102
{ACAD_REACTORS
330
1FD
102
}
330
1F
100
AcDbEntity
  8
1
  6
Continuous
 62
     4
100
AcDbLine
 10
-199.3135997642134
 20
128.7625552600167
 30
0.0
 11
-199.3135997642134
 21
134.6498208016857
 31
0.0
  0
LINE
  5
B6
102
{ACAD_REACTORS
330
1FD
102
}
330
1F
100
AcDbEntity
  8
1
  6
Continuous
 62
     4
100
AcDbLine
 10
-199.9353908908174
 20
134.8164292319199
 30
0.0
 11
-200.9796840665571
 21
133.0076603935428
 31
0.0
  0
LINE
  5
B7
102
{ACAD_REACTORS
330
1FE
102
}
330
1F
100
AcDbEntity
  8
1
  6
Continuous
 62
     4
100
AcDbLine
 10
-203.9786358107708
 20
129.717728889473
 30
0.0
 11
-203.9786358107708
 21
133.895092568396
 31
0.0
  0
LINE
  5
B8
102
{ACAD_REACTORS
330
1FE
102
}
330
1F
100
AcDbEntity
  8
1
  6
Continuous
 62
     4
100
AcDbLine
 10
-203.3122020898358
 20
133.895092568396
 30
0.0
 11
-203.3122020898358
 21
129.717728889473
 31
0.0
  0
LINE
  5
B9
102
{ACAD_REACTORS
330
1FE
102
}
330
1F
100
AcDbEntity
  8
1
  6
Continuous
 62
     4
100
AcDbLine
 10
-203.3122020898358
 20
129.717728889473
 30
0.0
 11
-201.1463849799688
 21
128.479765341848
 31
0.0
  0
LINE
  5
BA
102
{ACAD_REACTORS
330
1FE
102
}
330
1F
100
AcDbEntity
  8
1
  6
Continuous
 62
     4
100
AcDbLine
 10
-201.4794168740841
 20
127.9025100587161
 30
0.0
 11
-203.645233983952
 21
129.1404736063412
 31
0.0
  0
LINE
  5
BB
102
{ACAD_REACTORS
330
1FF
102
}
330
1F
100
AcDbEntity
  8
1
  6
Continuous
 62
     4
100
AcDbLine
 10
-204.6450695317075
 20
133.1261305826991
 30
0.0
 11
-204.6450695317075
 21
130.2862454790031
 31
0.0
  0
LINE
  5
BC
102
{ACAD_REACTORS
330
1FF
102
}
330
1F
100
AcDbEntity
  8
1
  6
Continuous
 62
     4
100
AcDbLine
 10
-205.3115032526424
 20
130.2862454790031
 30
0.0
 11
-205.3115032526424
 21
133.1261305826991
 31
0.0
  0
LINE
  5
BD
102
{ACAD_REACTORS
330
1FB
102
}
330
1F
100
AcDbEntity
  8
1
  6
Continuous
 62
     4
100
AcDbLine
 10
-198.1474332357533
 20
134.1765751806349
 30
0.0
 11
-196.814565793878
 21
133.414701918018
 31
0.0
  0
LINE
  5
BE
102
{ACAD_REACTORS
330
1FB
102
}
330
1F
100
AcDbEntity
  8
1
  6
Continuous
 62
     4
100
AcDbLine
 10
-197.1475976879914
 20
132.837446634887
 30
0.0
 11
-197.9807323223417
 21
133.313670287838
 31
0.0
  0
LINE
  5
BF
102
{ACAD_REACTORS
330
1FB
102
}
330
1F
100
AcDbEntity
  8
1
  6
Continuous
 62
     4
100
AcDbLine
 10
-197.9807323223417
 20
133.313670287838
 30
0.0
 11
-197.9807323223417
 21
132.0394048913202
 31
0.0
  0
LINE
  5
C0
102
{ACAD_REACTORS
330
1FB
102
}
330
1F
100
AcDbEntity
  8
1
  6
Continuous
 62
     4
100
AcDbLine
 10
-197.9807323223417
 20
132.0394048913202
 30
0.0
 11
-196.9810817409347
 21
132.0394048913202
 31
0.0
  0
LINE
  5
C1
102
{ACAD_REACTORS
330
1FB
102
}
330
1F
100
AcDbEntity
  8
1
  6
Continuous
 62
     4
100
AcDbLine
 10
-196.9810817409347
 20
131.3729711703828
 30
0.0
 11
-197.9807323223417
 21
131.3729711703828
 31
0.0
  0
LINE
  5
C2
102
{ACAD_REACTORS
330
1FB
102
}
330
1F
100
AcDbEntity
  8
1
  6
Continuous
 62
     4
100
AcDbLine
 10
-197.9807323223417
 20
131.3729711703828
 30
0.0
 11
-197.9807323223417
 21
130.098708843531
 31
0.0
  0
LINE
  5
C3
102
{ACAD_REACTORS
330
1FB
102
}
330
1F
100
AcDbEntity
  8
1
  6
Continuous
 62
     4
100
AcDbLine
 10
-197.9807323223417
 20
130.098708843531
 30
0.0
 11
-197.1475976879914
 21
130.5748731205687
 31
0.0
  0
LINE
  5
C4
102
{ACAD_REACTORS
330
1FB
102
}
330
1F
100
AcDbEntity
  8
1
  6
Continuous
 62
     4
100
AcDbLine
 10
-196.814565793878
 20
129.997617837437
 30
0.0
 11
-198.1474332357533
 21
129.2358008810682
 31
0.0
  0
LINE
  5
C5
102
{ACAD_REACTORS
330
1FB
102
}
330
1F
100
AcDbEntity
  8
1
  6
Continuous
 62
     4
100
AcDbLine
 10
-198.6471660432757
 20
129.5244285226328
 30
0.0
 11
-198.6471660432757
 21
133.8879475390688
 31
0.0
  0
LINE
  5
C6
330
1F
100
AcDbEntity
  8
1
  6
Continuous
 62
     7
100
AcDbLine
 10
-49.57976880562376
 20
148.2044754437457
 30
0.0
 11
-49.55060105651319
 21
148.2044754437457
 31
0.0
  0
LINE
  5
C7
330
1F
100
AcDbEntity
  8
0
  6
Continuous
 62
     7
100
AcDbLine
 10
-65.82976880562376
 20
84.70618803085023
 30
0.0
 11
-65.82976880562376
 21
102.7061880308502
 31
0.0
  0
LINE
  5
C8
330
1F
100
AcDbEntity
  8
0
  6
Continuous
 62
     7
100
AcDbLine
 10
-67.2866168204099
 20
148.7050580563501
 30
0.0
 11
-67.26436774268552
 21
148.7044754437457
 31
0.0
  0
LINE
  5
C9
330
1F
100
AcDbEntity
  8
0
  6
Continuous
 62
     2
100
AcDbLine
 10
-67.37976880562394
 20
148.7061880308502
 30
0.0
 11
-67.2797688056238
 21
148.7061880308502
 31
0.0
  0
LINE
  5
CA
330
1F
100
AcDbEntity
  8
0
  6
DASH_CENTER
 62
     2
100
AcDbLine
 10
-67.32976880562376
 20
155.5126757692378
 30
0.0
 11
-67.32976880562376
 21
70.01267576923766
 31
0.0
  0
LINE
  5
CB
330
1F
100
AcDbEntity
  8
0
  6
Continuous
 62
     7
100
AcDbLine
 10
-67.32976880562376
 20
72.7061880308517
 30
0.0
 11
-47.22976880562385
 21
72.70618803084886
 31
0.0
  0
LINE
  5
CC
330
1F
100
AcDbEntity
  8
0
  6
Continuous
 62
     7
100
AcDbLine
 10
-45.84680100194612
 20
72.95004256809142
 30
0.0
 11
-47.22976880562385
 21
72.70618803084886
 31
0.0
  0
LINE
  5
CD
330
1F
100
AcDbEntity
  8
0
  6
Continuous
 62
     7
100
AcDbLine
 10
-45.84680100194612
 20
72.95004256809142
 30
0.0
 11
-45.82976880562376
 21
72.95191122992713
 31
0.0
  0
LINE
  5
CE
330
1F
100
AcDbEntity
  8
0
  6
Continuous
 62
     7
100
AcDbLine
 10
-47.32310136972762
 20
101.2061880308502
 30
0.0
 11
-46.34913163907606
 21
102.7061880308502
 31
0.0
  0
LINE
  5
CF
330
1F
100
AcDbEntity
  8
0
  6
Continuous
 62
     7
100
AcDbLine
 10
-46.29676644429139
 20
99.70618803085023
 30
0.0
 11
-47.32310136972762
 21
101.2061880308502
 31
0.0
  0
LINE
  5
D0
330
1F
100
AcDbEntity
  8
0
  6
Continuous
 62
     7
100
AcDbLine
 10
-47.27073617494295
 20
98.20618803085023
 30
0.0
 11
-46.29676644429139
 21
99.70618803085023
 31
0.0
  0
LINE
  5
D1
330
1F
100
AcDbEntity
  8
0
  6
Continuous
 62
     7
100
AcDbLine
 10
-46.24440124950672
 20
96.70618803085023
 30
0.0
 11
-47.27073617494295
 21
98.20618803085023
 31
0.0
  0
LINE
  5
D2
330
1F
100
AcDbEntity
  8
0
  6
Continuous
 62
     7
100
AcDbLine
 10
-47.21837098015828
 20
95.20618803085023
 30
0.0
 11
-46.24440124950672
 21
96.70618803085023
 31
0.0
  0
LINE
  5
D3
330
1F
100
AcDbEntity
  8
0
  6
Continuous
 62
     7
100
AcDbLine
 10
-46.19203605472228
 20
93.70618803085023
 30
0.0
 11
-47.21837098015828
 21
95.20618803085023
 31
0.0
  0
LINE
  5
D4
330
1F
100
AcDbEntity
  8
0
  6
Continuous
 62
     7
100
AcDbLine
 10
-47.16600578537361
 20
92.20618803085023
 30
0.0
 11
-46.19203605472228
 21
93.70618803085023
 31
0.0
  0
LINE
  5
D5
330
1F
100
AcDbEntity
  8
0
  6
Continuous
 62
     7
100
AcDbLine
 10
-46.13967085993738
 20
90.70618803085023
 30
0.0
 11
-47.16600578537361
 21
92.20618803085023
 31
0.0
  0
LINE
  5
D6
330
1F
100
AcDbEntity
  8
0
  6
Continuous
 62
     7
100
AcDbLine
 10
-47.11364059058917
 20
89.20618803085023
 30
0.0
 11
-46.13967085993738
 21
90.70618803085023
 31
0.0
  0
LINE
  5
D7
330
1F
100
AcDbEntity
  8
0
  6
Continuous
 62
     7
100
AcDbLine
 10
-46.08730566515294
 20
87.70618803085023
 30
0.0
 11
-47.11364059058917
 21
89.20618803085023
 31
0.0
  0
LINE
  5
D8
330
1F
100
AcDbEntity
  8
0
  6
Continuous
 62
     7
100
AcDbLine
 10
-47.06127539580427
 20
86.20618803085023
 30
0.0
 11
-46.08730566515294
 21
87.70618803085023
 31
0.0
  0
LINE
  5
D9
330
1F
100
AcDbEntity
  8
0
  6
Continuous
 62
     7
100
AcDbLine
 10
-46.03494047036827
 20
84.70618803085023
 30
0.0
 11
-47.06127539580427
 21
86.20618803085023
 31
0.0
  0
LINE
  5
DA
330
1F
100
AcDbEntity
  8
0
  6
Continuous
 62
     4
100
AcDbLine
 10
-65.82976880562376
 20
99.70618803085023
 30
0.0
 11
-64.80276880562371
 21
101.2061880308502
 31
0.0
  0
LINE
  5
DB
330
1F
100
AcDbEntity
  8
0
  6
Continuous
 62
     4
100
AcDbLine
 10
-64.80276880562371
 20
98.20618803085023
 30
0.0
 11
-65.82976880562376
 21
99.70618803085023
 31
0.0
  0
LINE
  5
DC
330
1F
100
AcDbEntity
  8
0
  6
Continuous
 62
     4
100
AcDbLine
 10
-65.82976880562376
 20
96.70618803085023
 30
0.0
 11
-64.80276880562371
 21
98.20618803085023
 31
0.0
  0
LINE
  5
DD
330
1F
100
AcDbEntity
  8
0
  6
Continuous
 62
     4
100
AcDbLine
 10
-64.80276880562371
 20
95.20618803085023
 30
0.0
 11
-65.82976880562376
 21
96.70618803085023
 31
0.0
  0
LINE
  5
DE
330
1F
100
AcDbEntity
  8
0
  6
Continuous
 62
     4
100
AcDbLine
 10
-65.82976880562376
 20
93.70618803085023
 30
0.0
 11
-64.80276880562371
 21
95.20618803085023
 31
0.0
  0
LINE
  5
DF
330
1F
100
AcDbEntity
  8
0
  6
Continuous
 62
     4
100
AcDbLine
 10
-64.80276880562394
 20
92.20618803085023
 30
0.0
 11
-65.82976880562376
 21
93.70618803085023
 31
0.0
  0
LINE
  5
E0
330
1F
100
AcDbEntity
  8
0
  6
Continuous
 62
     4
100
AcDbLine
 10
-65.82976880562376
 20
90.70618803085023
 30
0.0
 11
-64.80276880562394
 21
92.20618803085023
 31
0.0
  0
LINE
  5
E1
330
1F
100
AcDbEntity
  8
0
  6
Continuous
 62
     4
100
AcDbLine
 10
-64.80276880562371
 20
89.20618803085023
 30
0.0
 11
-65.82976880562376
 21
90.70618803085023
 31
0.0
  0
LINE
  5
E2
330
1F
100
AcDbEntity
  8
0
  6
Continuous
 62
     4
100
AcDbLine
 10
-65.82976880562376
 20
87.70618803085023
 30
0.0
 11
-64.80276880562371
 21
89.20618803085023
 31
0.0
  0
LINE
  5
E3
330
1F
100
AcDbEntity
  8
0
  6
Continuous
 62
     4
100
AcDbLine
 10
-64.80276880562371
 20
86.20618803085023
 30
0.0
 11
-65.82976880562376
 21
87.70618803085023
 31
0.0
  0
LINE
  5
E4
330
1F
100
AcDbEntity
  8
0
  6
Continuous
 62
     4
100
AcDbLine
 10
-65.82976880562376
 20
84.70618803085023
 30
0.0
 11
-64.80276880562371
 21
86.20618803085023
 31
0.0
  0
LINE
  5
E5
330
1F
100
AcDbEntity
  8
0
  6
Continuous
 62
     7
100
AcDbLine
 10
-47.32310136972762
 20
101.2061880308502
 30
0.0
 11
-64.80276880562371
 21
101.2061880308502
 31
0.0
  0
LINE
  5
E6
330
1F
100
AcDbEntity
  8
0
  6
Continuous
 62
     7
100
AcDbLine
 10
-65.82976880562376
 20
99.70618803085023
 30
0.0
 11
-46.29676644429139
 21
99.70618803085023
 31
0.0
  0
LINE
  5
E7
330
1F
100
AcDbEntity
  8
0
  6
Continuous
 62
     7
100
AcDbLine
 10
-47.27073617494295
 20
98.20618803085023
 30
0.0
 11
-64.80276880562371
 21
98.20618803085023
 31
0.0
  0
LINE
  5
E8
330
1F
100
AcDbEntity
  8
0
  6
Continuous
 62
     7
100
AcDbLine
 10
-65.82976880562376
 20
96.70618803085023
 30
0.0
 11
-46.24440124950672
 21
96.70618803085023
 31
0.0
  0
LINE
  5
E9
330
1F
100
AcDbEntity
  8
0
  6
Continuous
 62
     7
100
AcDbLine
 10
-47.21837098015828
 20
95.20618803085023
 30
0.0
 11
-64.80276880562371
 21
95.20618803085023
 31
0.0
  0
LINE
  5
EA
330
1F
100
AcDbEntity
  8
0
  6
Continuous
 62
     7
100
AcDbLine
 10
-65.82976880562376
 20
93.70618803085023
 30
0.0
 11
-46.19203605472228
 21
93.70618803085023
 31
0.0
  0
LINE
  5
EB
330
1F
100
AcDbEntity
  8
0
  6
Continuous
 62
     7
100
AcDbLine
 10
-47.16600578537361
 20
92.20618803085023
 30
0.0
 11
-64.80276880562394
 21
92.20618803085023
 31
0.0
  0
LINE
  5
EC
330
1F
100
AcDbEntity
  8
0
  6
Continuous
 62
     7
100
AcDbLine
 10
-65.82976880562376
 20
90.70618803085023
 30
0.0
 11
-46.13967085993738
 21
90.70618803085023
 31
0.0
  0
LINE
  5
ED
330
1F
100
AcDbEntity
  8
0
  6
Continuous
 62
     7
100
AcDbLine
 10
-47.11364059058917
 20
89.20618803085023
 30
0.0
 11
-64.80276880562371
 21
89.20618803085023
 31
0.0
  0
LINE
  5
EE
330
1F
100
AcDbEntity
  8
0
  6
Continuous
 62
     7
100
AcDbLine
 10
-65.82976880562376
 20
87.70618803085023
 30
0.0
 11
-46.08730566515294
 21
87.70618803085023
 31
0.0
  0
LINE
  5
EF
330
1F
100
AcDbEntity
  8
0
  6
Continuous
 62
     7
100
AcDbLine
 10
-47.06127539580427
 20
86.20618803085023
 30
0.0
 11
-64.80276880562371
 21
86.20618803085023
 31
0.0
  0
LINE
  5
F0
330
1F
100
AcDbEntity
  8
0
  6
Continuous
 62
     7
100
AcDbLine
 10
-65.82976880562376
 20
84.70618803085023
 30
0.0
 11
-46.03494047036827
 21
84.70618803085023
 31
0.0
  0
LINE
  5
F1
330
1F
100
AcDbEntity
  8
0
  6
Continuous
 62
     7
100
AcDbLine
 10
-48.00384890192811
 20
140.2061880308502
 30
0.0
 11
-47.02987917127655
 21
141.7061880308502
 31
0.0
  0
LINE
  5
F2
330
1F
100
AcDbEntity
  8
0
  6
Continuous
 62
     7
100
AcDbLine
 10
-47.09271651092843
 20
145.3061368084886
 30
0.0
 11
-47.02987917127655
 21
141.7061880308502
 31
0.0
  0
LINE
  5
F3
330
1F
100
AcDbEntity
  8
0
  6
Continuous
 62
     7
100
AcDbLine
 10
-46.4538620286454
 20
108.7061880308502
 30
0.0
 11
-47.48019695408163
 21
110.2061880308502
 31
0.0
  0
LINE
  5
F4
330
1F
100
AcDbEntity
  8
0
  6
Continuous
 62
     7
100
AcDbLine
 10
-47.48019695408163
 20
110.2061880308502
 30
0.0
 11
-48.00384890192811
 21
140.2061880308502
 31
0.0
  0
LINE
  5
F5
330
1F
100
AcDbEntity
  8
0
  6
Continuous
 62
     7
100
AcDbLine
 10
-46.4538620286454
 20
108.7061880308502
 30
0.0
 11
-46.34913163907606
 21
102.7061880308502
 31
0.0
  0
LINE
  5
F6
330
1F
100
AcDbEntity
  8
0
  6
Continuous
 62
     7
100
AcDbLine
 10
-45.82976880562376
 20
72.95191122992713
 30
0.0
 11
-46.03494047036827
 21
84.70618803085023
 31
0.0
  0
LINE
  5
F7
330
1F
100
AcDbEntity
  8
0
  6
Continuous
 62
     7
100
AcDbLine
 10
-65.82976880562376
 20
102.7061880308502
 30
0.0
 11
-46.34913163907606
 21
102.7061880308502
 31
0.0
  0
LINE
  5
F8
330
1F
100
AcDbEntity
  8
0
  6
Continuous
 62
     7
100
AcDbLine
 10
-253.2630202266062
 20
146.2271325638519
 30
0.0
 11
-260.4079560315655
 21
105.7061880308508
 31
0.0
  0
LINE
  5
F9
330
1F
100
AcDbEntity
  8
0
  6
Continuous
 62
     7
100
AcDbLine
 10
-255.8365460368109
 20
110.2061880308508
 30
0.0
 11
-250.5654943832606
 21
140.2061880308508
 31
0.0
  0
LINE
  5
FA
330
1F
100
AcDbEntity
  8
0
  6
DASH_CENTER
 62
     2
100
AcDbLine
 10
-200.9796840665551
 20
82.63514197096782
 30
0.0
 11
-200.9796840665551
 21
125.34555961279
 31
0.0
  0
LINE
  5
FB
330
1F
100
AcDbEntity
  8
0
  6
Continuous
 62
     7
100
AcDbLine
 10
-141.322594265593
 20
84.70618803085085
 30
0.0
 11
-260.636773867517
 21
84.70618803085085
 31
0.0
  0
LINE
  5
FC
330
1F
100
AcDbEntity
  8
0
  6
Continuous
 62
     7
100
AcDbLine
 10
-260.3239287017152
 20
102.7061880308508
 30
0.0
 11
-141.6354394313949
 21
102.7061880308508
 31
0.0
  0
LINE
  5
FD
330
1F
100
AcDbEntity
  8
0
  6
Continuous
 62
     7
100
AcDbLine
 10
-142.609520026695
 20
101.2061880308508
 30
0.0
 11
-259.349848106415
 21
101.2061880308508
 31
0.0
  0
LINE
  5
FE
330
1F
100
AcDbEntity
  8
0
  6
Continuous
 62
     7
100
AcDbLine
 10
-260.3760695626821
 20
99.70618803085085
 30
0.0
 11
-141.583298570428
 21
99.70618803085085
 31
0.0
  0
LINE
  5
FF
330
1F
100
AcDbEntity
  8
0
  6
Continuous
 62
     7
100
AcDbLine
 10
-142.557379165728
 20
98.20618803085085
 30
0.0
 11
-259.401988967382
 21
98.20618803085085
 31
0.0
  0
LINE
  5
100
330
1F
100
AcDbEntity
  8
0
  6
Continuous
 62
     7
100
AcDbLine
 10
-260.428210423649
 20
96.70618803085085
 30
0.0
 11
-141.531157709461
 21
96.70618803085085
 31
0.0
  0
LINE
  5
101
330
1F
100
AcDbEntity
  8
0
  6
Continuous
 62
     7
100
AcDbLine
 10
-142.5052383047611
 20
95.20618803085085
 30
0.0
 11
-259.4541298283489
 21
95.20618803085085
 31
0.0
  0
LINE
  5
102
330
1F
100
AcDbEntity
  8
0
  6
Continuous
 62
     7
100
AcDbLine
 10
-141.479016848494
 20
93.70618803085085
 30
0.0
 11
-260.4803512846161
 21
93.70618803085085
 31
0.0
  0
LINE
  5
103
330
1F
100
AcDbEntity
  8
0
  6
Continuous
 62
     7
100
AcDbLine
 10
-259.506270689316
 20
92.20618803085085
 30
0.0
 11
-142.453097443794
 21
92.20618803085085
 31
0.0
  0
LINE
  5
104
330
1F
100
AcDbEntity
  8
0
  6
Continuous
 62
     7
100
AcDbLine
 10
-141.4268759875271
 20
90.70618803085085
 30
0.0
 11
-260.5324921455829
 21
90.70618803085085
 31
0.0
  0
LINE
  5
105
330
1F
100
AcDbEntity
  8
0
  6
Continuous
 62
     7
100
AcDbLine
 10
-259.558411550283
 20
89.20618803085085
 30
0.0
 11
-142.400956582827
 21
89.20618803085085
 31
0.0
  0
LINE
  5
106
330
1F
100
AcDbEntity
  8
0
  6
Continuous
 62
     7
100
AcDbLine
 10
-141.37473512656
 20
87.70618803085085
 30
0.0
 11
-260.5846330065501
 21
87.70618803085085
 31
0.0
  0
LINE
  5
107
330
1F
100
AcDbEntity
  8
0
  6
Continuous
 62
     7
100
AcDbLine
 10
-259.61055241125
 20
86.20618803085085
 30
0.0
 11
-142.34881572186
 21
86.20618803085085
 31
0.0
  0
LINE
  5
108
330
1F
100
AcDbEntity
  8
0
  6
Continuous
 62
     4
100
AcDbLine
 10
-259.349848106415
 20
101.2061880308508
 30
0.0
 11
-260.3239287017152
 21
102.7061880308508
 31
0.0
  0
LINE
  5
109
330
1F
100
AcDbEntity
  8
0
  6
Continuous
 62
     4
100
AcDbLine
 10
-260.3760695626821
 20
99.70618803085085
 30
0.0
 11
-259.349848106415
 21
101.2061880308508
 31
0.0
  0
LINE
  5
10A
330
1F
100
AcDbEntity
  8
0
  6
Continuous
 62
     4
100
AcDbLine
 10
-259.401988967382
 20
98.20618803085085
 30
0.0
 11
-260.3760695626821
 21
99.70618803085085
 31
0.0
  0
LINE
  5
10B
330
1F
100
AcDbEntity
  8
0
  6
Continuous
 62
     4
100
AcDbLine
 10
-260.428210423649
 20
96.70618803085085
 30
0.0
 11
-259.401988967382
 21
98.20618803085085
 31
0.0
  0
LINE
  5
10C
330
1F
100
AcDbEntity
  8
0
  6
Continuous
 62
     4
100
AcDbLine
 10
-259.4541298283489
 20
95.20618803085085
 30
0.0
 11
-260.428210423649
 21
96.70618803085085
 31
0.0
  0
LINE
  5
10D
330
1F
100
AcDbEntity
  8
0
  6
Continuous
 62
     4
100
AcDbLine
 10
-260.4803512846161
 20
93.70618803085085
 30
0.0
 11
-259.4541298283489
 21
95.20618803085085
 31
0.0
  0
LINE
  5
10E
330
1F
100
AcDbEntity
  8
0
  6
Continuous
 62
     4
100
AcDbLine
 10
-259.506270689316
 20
92.20618803085085
 30
0.0
 11
-260.4803512846161
 21
93.70618803085085
 31
0.0
  0
LINE
  5
10F
330
1F
100
AcDbEntity
  8
0
  6
Continuous
 62
     4
100
AcDbLine
 10
-260.5324921455829
 20
90.70618803085085
 30
0.0
 11
-259.506270689316
 21
92.20618803085085
 31
0.0
  0
LINE
  5
110
330
1F
100
AcDbEntity
  8
0
  6
Continuous
 62
     4
100
AcDbLine
 10
-259.558411550283
 20
89.20618803085085
 30
0.0
 11
-260.5324921455829
 21
90.70618803085085
 31
0.0
  0
LINE
  5
111
330
1F
100
AcDbEntity
  8
0
  6
Continuous
 62
     4
100
AcDbLine
 10
-260.5846330065501
 20
87.70618803085085
 30
0.0
 11
-259.558411550283
 21
89.20618803085085
 31
0.0
  0
LINE
  5
112
330
1F
100
AcDbEntity
  8
0
  6
Continuous
 62
     4
100
AcDbLine
 10
-259.61055241125
 20
86.20618803085085
 30
0.0
 11
-260.5846330065501
 21
87.70618803085085
 31
0.0
  0
LINE
  5
113
330
1F
100
AcDbEntity
  8
0
  6
Continuous
 62
     4
100
AcDbLine
 10
-260.636773867517
 20
84.70618803085085
 30
0.0
 11
-259.61055241125
 21
86.20618803085085
 31
0.0
  0
LINE
  5
114
330
1F
100
AcDbEntity
  8
0
  6
Continuous
 62
     7
100
AcDbLine
 10
-250.3085969675696
 20
148.7061880308509
 30
0.0
 11
-200.9796840665543
 21
148.7061880308509
 31
0.0
  0
LINE
  5
115
330
1F
100
AcDbEntity
  8
0
  6
Continuous
 62
     7
100
AcDbLine
 10
-146.1228220962991
 20
110.2061880308508
 30
0.0
 11
-255.8365460368109
 21
110.2061880308508
 31
0.0
  0
LINE
  5
116
330
1F
100
AcDbEntity
  8
0
  6
Continuous
 62
     7
100
AcDbLine
 10
-200.9796840665549
 20
108.7061880308499
 30
0.0
 11
-252.4093946612738
 21
108.7061880308508
 31
0.0
  0
LINE
  5
117
330
1F
100
AcDbEntity
  8
0
  6
Continuous
 62
     7
100
AcDbLine
 10
-151.3938737498495
 20
140.2061880308508
 30
0.0
 11
-250.5654943832606
 21
140.2061880308508
 31
0.0
  0
LINE
  5
118
330
1F
100
AcDbEntity
  8
0
  6
Continuous
 62
     7
100
AcDbLine
 10
-142.3732473825872
 20
72.70618803085085
 30
0.0
 11
-259.5861207505229
 21
72.70618803085085
 31
0.0
  0
LINE
  5
119
330
1F
100
AcDbEntity
  8
0
  6
Continuous
 62
     7
100
AcDbLine
 10
-259.5861207505229
 20
72.70618803085085
 30
0.0
 11
-260.9796840665599
 21
72.95191084279395
 31
0.0
  0
LINE
  5
11A
330
1F
100
AcDbEntity
  8
0
  6
Continuous
 62
     7
100
AcDbLine
 10
-200.9796840665553
 20
141.7061880308529
 30
0.0
 11
-246.6112378423695
 21
141.706188030852
 31
0.0
  0
LINE
  5
11B
330
1F
100
AcDbEntity
  8
0
  6
Continuous
 62
     7
100
AcDbLine
 10
-260.9796840665599
 20
72.95191084279395
 30
0.0
 11
-260.9796840598024
 21
72.95191122992901
 31
0.0
  0
LINE
  5
11C
330
1F
100
AcDbEntity
  8
0
  6
DASH_CENTER
 62
     2
100
AcDbLine
 10
-200.979684066556
 20
148.2653595027119
 30
0.0
 11
-200.9796840665542
 21
148.2653595027119
 31
0.0
  0
LINE
  5
11D
330
1F
100
AcDbEntity
  8
0
  6
DASH_CENTER
 62
     2
100
AcDbLine
 10
-200.9796840665542
 20
148.2653595027119
 30
0.0
 11
-200.979684066556
 21
148.2653595027119
 31
0.0
  0
LINE
  5
11E
330
1F
100
AcDbEntity
  8
0
  6
DASH_CENTER
 62
     2
100
AcDbLine
 10
-200.9796840665542
 20
148.2653595027119
 30
0.0
 11
-200.9796840665554
 21
145.9061880308509
 31
0.0
  0
LINE
  5
11F
330
1F
100
AcDbEntity
  8
0
  6
Continuous
 62
     7
100
AcDbLine
 10
-260.9796840598024
 20
72.95191122992901
 30
0.0
 11
-260.4079560315655
 21
105.7061880308508
 31
0.0
  0
LINE
  5
120
330
1F
100
AcDbEntity
  8
0
  6
Continuous
 62
     4
100
AcDbLine
 10
-260.9796840598024
 20
72.95191122992901
 30
0.0
 11
-260.9796840665599
 21
72.95191122992901
 31
0.0
  0
LINE
  5
121
330
1F
100
AcDbEntity
  8
1
  6
DASH_CENTER
 62
     2
100
AcDbLine
 10
-67.32976880562319
 20
58.43625658048819
 30
0.0
 11
-67.32976880562319
 21
63.80618803085105
 31
0.0
  0
LINE
  5
122
330
1F
100
AcDbEntity
  8
1
  6
DASH_CENTER
 62
     2
100
AcDbLine
 10
-200.9796840665557
 20
45.73625658048806
 30
0.0
 11
-200.9796840665557
 21
51.10618803085094
 31
0.0
  0
LINE
  5
123
330
1F
100
AcDbEntity
  8
1
  6
DASH_CENTER
 62
     2
100
AcDbLine
 10
-200.9796840665557
 20
58.43625658048802
 30
0.0
 11
-200.9796840665557
 21
63.80618803085093
 31
0.0
  0
LINE
  5
124
330
1F
100
AcDbEntity
  8
1
  6
DASH_CENTER
 62
     2
100
AcDbLine
 10
-200.9796840665561
 20
69.73514197096767
 30
0.0
 11
-200.9796840665564
 21
74.73772884536322
 31
0.0
  0
LINE
  5
125
330
1F
100
AcDbEntity
  8
1
  6
Continuous
 62
     7
100
AcDbLine
 10
-269.981232708526
 20
75.30618803085088
 30
0.0
 11
-269.981232708526
 21
83.10618803085083
 31
0.0
  0
LINE
  5
126
330
1F
100
AcDbEntity
  8
1
  6
Continuous
 62
     7
100
AcDbLine
 10
-260.9474561968743
 20
74.80618803085099
 30
0.0
 11
-269.481232708526
 21
74.80618803085088
 31
0.0
  0
LINE
  5
127
330
1F
100
AcDbEntity
  8
1
  6
Continuous
 62
     7
100
AcDbLine
 10
-268.6812327085258
 20
83.50618803085081
 30
0.0
 11
-268.6812327085258
 21
74.9061880308509
 31
0.0
  0
LINE
  5
128
330
1F
100
AcDbEntity
  8
1
  6
Continuous
 62
     7
100
AcDbLine
 10
-269.481232708526
 20
83.60618803085072
 30
0.0
 11
-260.7945096713712
 21
83.60618803085117
 31
0.0
  0
LINE
  5
129
330
1F
100
AcDbEntity
  8
1
  6
Continuous
 62
     7
100
AcDbLine
 10
-133.2781354245843
 20
74.9061880308509
 30
0.0
 11
-133.2781354245843
 21
83.50618803085081
 31
0.0
  0
LINE
  5
12A
330
1F
100
AcDbEntity
  8
1
  6
Continuous
 62
     7
100
AcDbLine
 10
-131.9781354245842
 20
83.10618803085083
 30
0.0
 11
-131.9781354245842
 21
75.30618803085088
 31
0.0
  0
LINE
  5
12B
330
1F
100
AcDbEntity
  8
1
  6
Continuous
 62
     7
100
AcDbLine
 10
-141.1648584617393
 20
83.60618803085117
 30
0.0
 11
-132.4781354245842
 21
83.60618803085072
 31
0.0
  0
LINE
  5
12C
330
1F
100
AcDbEntity
  8
1
  6
Continuous
 62
     7
100
AcDbLine
 10
-132.4781354245842
 20
74.80618803085088
 30
0.0
 11
-141.0119119362362
 21
74.80618803085099
 31
0.0
  0
LINE
  5
12D
330
1F
100
AcDbEntity
  8
1
  6
DOT_CENTER
 62
     2
100
AcDbLine
 10
-258.6301639815531
 20
79.20618803085085
 30
0.0
 11
-273.5038326405233
 21
79.20618803085085
 31
0.0
  0
LINE
  5
12E
330
1F
100
AcDbEntity
  8
1
  6
DOT_CENTER
 62
     2
100
AcDbLine
 10
-128.4555354925872
 20
79.20618803085085
 30
0.0
 11
-143.3292041515572
 21
79.20618803085085
 31
0.0
  0
LINE
  5
12F
330
1F
100
AcDbEntity
  8
1
  6
DOT_CENTER
 62
     2
100
AcDbLine
 10
-60.74014849828984
 20
79.20618803085097
 30
0.0
 11
-73.91938911295676
 21
79.20618803085097
 31
0.0
  0
LINE
  5
130
330
1F
100
AcDbEntity
  8
0
  6
Continuous
 62
     4
100
AcDbLine
 10
-140.9796840665501
 20
72.95191122992901
 30
0.0
 11
-140.9796840733076
 21
72.95191122992901
 31
0.0
  0
LINE
  5
131
330
1F
100
AcDbEntity
  8
0
  6
Continuous
 62
     7
100
AcDbLine
 10
-141.5514121015446
 20
105.7061880308508
 30
0.0
 11
-140.9796840733076
 21
72.95191122992901
 31
0.0
  0
LINE
  5
132
330
1F
100
AcDbEntity
  8
0
  6
DASH_CENTER
 62
     2
100
AcDbLine
 10
-200.9796840665554
 20
145.9061880308509
 30
0.0
 11
-200.979684066556
 21
148.2653595027119
 31
0.0
  0
LINE
  5
133
330
1F
100
AcDbEntity
  8
0
  6
Continuous
 62
     7
100
AcDbLine
 10
-140.9796840733076
 20
72.95191122992901
 30
0.0
 11
-140.9796840665502
 21
72.95191084279395
 31
0.0
  0
LINE
  5
134
330
1F
100
AcDbEntity
  8
0
  6
Continuous
 62
     7
100
AcDbLine
 10
-155.3481302907406
 20
141.706188030852
 30
0.0
 11
-200.9796840665553
 21
141.7061880308529
 31
0.0
  0
LINE
  5
135
330
1F
100
AcDbEntity
  8
0
  6
Continuous
 62
     7
100
AcDbLine
 10
-140.9796840665502
 20
72.95191084279395
 30
0.0
 11
-142.3732473825872
 21
72.70618803085085
 31
0.0
  0
LINE
  5
136
330
1F
100
AcDbEntity
  8
0
  6
Continuous
 62
     7
100
AcDbLine
 10
-149.5499734718362
 20
108.7061880308508
 30
0.0
 11
-200.9796840665549
 21
108.7061880308499
 31
0.0
  0
LINE
  5
137
330
1F
100
AcDbEntity
  8
0
  6
Continuous
 62
     7
100
AcDbLine
 10
-200.9796840665558
 20
148.7061880308509
 30
0.0
 11
-151.6507711655405
 21
148.7061880308509
 31
0.0
  0
LINE
  5
138
330
1F
100
AcDbEntity
  8
0
  6
Continuous
 62
     4
100
AcDbLine
 10
-142.34881572186
 20
86.20618803085085
 30
0.0
 11
-141.322594265593
 21
84.70618803085085
 31
0.0
  0
LINE
  5
139
330
1F
100
AcDbEntity
  8
0
  6
Continuous
 62
     4
100
AcDbLine
 10
-141.37473512656
 20
87.70618803085085
 30
0.0
 11
-142.34881572186
 21
86.20618803085085
 31
0.0
  0
LINE
  5
13A
330
1F
100
AcDbEntity
  8
0
  6
Continuous
 62
     4
100
AcDbLine
 10
-142.400956582827
 20
89.20618803085085
 30
0.0
 11
-141.37473512656
 21
87.70618803085085
 31
0.0
  0
LINE
  5
13B
330
1F
100
AcDbEntity
  8
0
  6
Continuous
 62
     4
100
AcDbLine
 10
-141.4268759875271
 20
90.70618803085085
 30
0.0
 11
-142.400956582827
 21
89.20618803085085
 31
0.0
  0
LINE
  5
13C
330
1F
100
AcDbEntity
  8
0
  6
Continuous
 62
     4
100
AcDbLine
 10
-142.453097443794
 20
92.20618803085085
 30
0.0
 11
-141.4268759875271
 21
90.70618803085085
 31
0.0
  0
LINE
  5
13D
330
1F
100
AcDbEntity
  8
0
  6
Continuous
 62
     4
100
AcDbLine
 10
-141.479016848494
 20
93.70618803085085
 30
0.0
 11
-142.453097443794
 21
92.20618803085085
 31
0.0
  0
LINE
  5
13E
330
1F
100
AcDbEntity
  8
0
  6
Continuous
 62
     4
100
AcDbLine
 10
-142.5052383047611
 20
95.20618803085085
 30
0.0
 11
-141.479016848494
 21
93.70618803085085
 31
0.0
  0
LINE
  5
13F
330
1F
100
AcDbEntity
  8
0
  6
Continuous
 62
     4
100
AcDbLine
 10
-141.531157709461
 20
96.70618803085085
 30
0.0
 11
-142.5052383047611
 21
95.20618803085085
 31
0.0
  0
LINE
  5
140
330
1F
100
AcDbEntity
  8
0
  6
Continuous
 62
     4
100
AcDbLine
 10
-142.557379165728
 20
98.20618803085085
 30
0.0
 11
-141.531157709461
 21
96.70618803085085
 31
0.0
  0
LINE
  5
141
330
1F
100
AcDbEntity
  8
0
  6
Continuous
 62
     4
100
AcDbLine
 10
-141.583298570428
 20
99.70618803085085
 30
0.0
 11
-142.557379165728
 21
98.20618803085085
 31
0.0
  0
LINE
  5
142
330
1F
100
AcDbEntity
  8
0
  6
Continuous
 62
     4
100
AcDbLine
 10
-142.609520026695
 20
101.2061880308508
 30
0.0
 11
-141.583298570428
 21
99.70618803085085
 31
0.0
  0
LINE
  5
143
330
1F
100
AcDbEntity
  8
0
  6
Continuous
 62
     4
100
AcDbLine
 10
-141.6354394313949
 20
102.7061880308508
 30
0.0
 11
-142.609520026695
 21
101.2061880308508
 31
0.0
  0
LINE
  5
144
330
1F
100
AcDbEntity
  8
0
  6
Continuous
 62
     4
100
AcDbLine
 10
-64.80276880562371
 20
101.2061880308502
 30
0.0
 11
-65.82976880562376
 21
102.7061880308502
 31
0.0
  0
LINE
  5
145
330
1F
100
AcDbEntity
  8
0
  6
Continuous
 62
     4
100
AcDbLine
 10
-68.82976880562398
 20
102.7061880308502
 30
0.0
 11
-69.85676880562403
 21
101.2061880308502
 31
0.0
  0
LINE
  5
146
330
1F
100
AcDbEntity
  8
0
  6
Continuous
 62
     7
100
AcDbLine
 10
-88.31040597217168
 20
102.7061880308502
 30
0.0
 11
-68.82976880562398
 21
102.7061880308502
 31
0.0
  0
LINE
  5
147
330
1F
100
AcDbEntity
  8
0
  6
Continuous
 62
     7
100
AcDbLine
 10
-88.62459714087947
 20
84.70618803085023
 30
0.0
 11
-88.82976880562398
 21
72.95191122992713
 31
0.0
  0
LINE
  5
148
330
1F
100
AcDbEntity
  8
0
  6
Continuous
 62
     7
100
AcDbLine
 10
-88.31040597217168
 20
102.7061880308502
 30
0.0
 11
-88.20567558260234
 21
108.7061880308502
 31
0.0
  0
LINE
  5
149
330
1F
100
AcDbEntity
  8
0
  6
Continuous
 62
     7
100
AcDbLine
 10
-86.65568870931963
 20
140.2061880308502
 30
0.0
 11
-87.17934065716611
 21
110.2061880308502
 31
0.0
  0
LINE
  5
14A
330
1F
100
AcDbEntity
  8
0
  6
Continuous
 62
     7
100
AcDbLine
 10
-87.17934065716611
 20
110.2061880308502
 30
0.0
 11
-88.20567558260234
 21
108.7061880308502
 31
0.0
  0
LINE
  5
14B
330
1F
100
AcDbEntity
  8
0
  6
Continuous
 62
     7
100
AcDbLine
 10
-87.6296584399712
 20
141.7061880308502
 30
0.0
 11
-87.56682110031932
 21
145.3061368084886
 31
0.0
  0
LINE
  5
14C
330
1F
100
AcDbEntity
  8
0
  6
Continuous
 62
     7
100
AcDbLine
 10
-87.6296584399712
 20
141.7061880308502
 30
0.0
 11
-86.65568870931963
 21
140.2061880308502
 31
0.0
  0
LINE
  5
14D
330
1F
100
AcDbEntity
  8
0
  6
Continuous
 62
     7
100
AcDbLine
 10
-88.62459714087947
 20
84.70618803085023
 30
0.0
 11
-68.82976880562398
 21
84.70618803085023
 31
0.0
  0
LINE
  5
14E
330
1F
100
AcDbEntity
  8
0
  6
Continuous
 62
     7
100
AcDbLine
 10
-69.85676880562403
 20
86.20618803085023
 30
0.0
 11
-87.59826221544347
 21
86.20618803085023
 31
0.0
  0
LINE
  5
14F
330
1F
100
AcDbEntity
  8
0
  6
Continuous
 62
     7
100
AcDbLine
 10
-88.5722319460948
 20
87.70618803085023
 30
0.0
 11
-68.82976880562398
 21
87.70618803085023
 31
0.0
  0
LINE
  5
150
330
1F
100
AcDbEntity
  8
0
  6
Continuous
 62
     7
100
AcDbLine
 10
-69.85676880562403
 20
89.20618803085023
 30
0.0
 11
-87.54589702065857
 21
89.20618803085023
 31
0.0
  0
LINE
  5
151
330
1F
100
AcDbEntity
  8
0
  6
Continuous
 62
     7
100
AcDbLine
 10
-88.51986675131036
 20
90.70618803085023
 30
0.0
 11
-68.82976880562398
 21
90.70618803085023
 31
0.0
  0
LINE
  5
152
330
1F
100
AcDbEntity
  8
0
  6
Continuous
 62
     7
100
AcDbLine
 10
-69.8567688056238
 20
92.20618803085023
 30
0.0
 11
-87.49353182587413
 21
92.20618803085023
 31
0.0
  0
LINE
  5
153
330
1F
100
AcDbEntity
  8
0
  6
Continuous
 62
     7
100
AcDbLine
 10
-88.46750155652546
 20
93.70618803085023
 30
0.0
 11
-68.82976880562398
 21
93.70618803085023
 31
0.0
  0
LINE
  5
154
330
1F
100
AcDbEntity
  8
0
  6
Continuous
 62
     7
100
AcDbLine
 10
-69.85676880562403
 20
95.20618803085023
 30
0.0
 11
-87.44116663108946
 21
95.20618803085023
 31
0.0
  0
LINE
  5
155
330
1F
100
AcDbEntity
  8
0
  6
Continuous
 62
     7
100
AcDbLine
 10
-88.41513636174102
 20
96.70618803085023
 30
0.0
 11
-68.82976880562398
 21
96.70618803085023
 31
0.0
  0
LINE
  5
156
330
1F
100
AcDbEntity
  8
0
  6
Continuous
 62
     7
100
AcDbLine
 10
-69.85676880562403
 20
98.20618803085023
 30
0.0
 11
-87.38880143630479
 21
98.20618803085023
 31
0.0
  0
LINE
  5
157
330
1F
100
AcDbEntity
  8
0
  6
Continuous
 62
     7
100
AcDbLine
 10
-88.36277116695635
 20
99.70618803085023
 30
0.0
 11
-68.82976880562398
 21
99.70618803085023
 31
0.0
  0
LINE
  5
158
330
1F
100
AcDbEntity
  8
0
  6
Continuous
 62
     7
100
AcDbLine
 10
-69.85676880562403
 20
101.2061880308502
 30
0.0
 11
-87.33643624152012
 21
101.2061880308502
 31
0.0
  0
LINE
  5
159
330
1F
100
AcDbEntity
  8
0
  6
Continuous
 62
     4
100
AcDbLine
 10
-69.85676880562403
 20
86.20618803085023
 30
0.0
 11
-68.82976880562398
 21
84.70618803085023
 31
0.0
  0
LINE
  5
15A
330
1F
100
AcDbEntity
  8
0
  6
Continuous
 62
     4
100
AcDbLine
 10
-68.82976880562398
 20
87.70618803085023
 30
0.0
 11
-69.85676880562403
 21
86.20618803085023
 31
0.0
  0
LINE
  5
15B
330
1F
100
AcDbEntity
  8
0
  6
Continuous
 62
     4
100
AcDbLine
 10
-69.85676880562403
 20
89.20618803085023
 30
0.0
 11
-68.82976880562398
 21
87.70618803085023
 31
0.0
  0
LINE
  5
15C
330
1F
100
AcDbEntity
  8
0
  6
Continuous
 62
     4
100
AcDbLine
 10
-68.82976880562398
 20
90.70618803085023
 30
0.0
 11
-69.85676880562403
 21
89.20618803085023
 31
0.0
  0
LINE
  5
15D
330
1F
100
AcDbEntity
  8
0
  6
Continuous
 62
     4
100
AcDbLine
 10
-69.8567688056238
 20
92.20618803085023
 30
0.0
 11
-68.82976880562398
 21
90.70618803085023
 31
0.0
  0
LINE
  5
15E
330
1F
100
AcDbEntity
  8
0
  6
Continuous
 62
     4
100
AcDbLine
 10
-68.82976880562398
 20
93.70618803085023
 30
0.0
 11
-69.8567688056238
 21
92.20618803085023
 31
0.0
  0
LINE
  5
15F
330
1F
100
AcDbEntity
  8
0
  6
Continuous
 62
     4
100
AcDbLine
 10
-69.85676880562403
 20
95.20618803085023
 30
0.0
 11
-68.82976880562398
 21
93.70618803085023
 31
0.0
  0
LINE
  5
160
330
1F
100
AcDbEntity
  8
0
  6
Continuous
 62
     4
100
AcDbLine
 10
-68.82976880562398
 20
96.70618803085023
 30
0.0
 11
-69.85676880562403
 21
95.20618803085023
 31
0.0
  0
LINE
  5
161
330
1F
100
AcDbEntity
  8
0
  6
Continuous
 62
     4
100
AcDbLine
 10
-69.85676880562403
 20
98.20618803085023
 30
0.0
 11
-68.82976880562398
 21
96.70618803085023
 31
0.0
  0
LINE
  5
162
330
1F
100
AcDbEntity
  8
0
  6
Continuous
 62
     4
100
AcDbLine
 10
-68.82976880562398
 20
99.70618803085023
 30
0.0
 11
-69.85676880562403
 21
98.20618803085023
 31
0.0
  0
LINE
  5
163
330
1F
100
AcDbEntity
  8
0
  6
Continuous
 62
     4
100
AcDbLine
 10
-69.85676880562403
 20
101.2061880308502
 30
0.0
 11
-68.82976880562398
 21
99.70618803085023
 31
0.0
  0
LINE
  5
164
330
1F
100
AcDbEntity
  8
0
  6
Continuous
 62
     7
100
AcDbLine
 10
-87.59826221544347
 20
86.20618803085023
 30
0.0
 11
-88.62459714087947
 21
84.70618803085023
 31
0.0
  0
LINE
  5
165
330
1F
100
AcDbEntity
  8
0
  6
Continuous
 62
     7
100
AcDbLine
 10
-88.5722319460948
 20
87.70618803085023
 30
0.0
 11
-87.59826221544347
 21
86.20618803085023
 31
0.0
  0
LINE
  5
166
330
1F
100
AcDbEntity
  8
0
  6
Continuous
 62
     7
100
AcDbLine
 10
-87.54589702065857
 20
89.20618803085023
 30
0.0
 11
-88.5722319460948
 21
87.70618803085023
 31
0.0
  0
LINE
  5
167
330
1F
100
AcDbEntity
  8
0
  6
Continuous
 62
     7
100
AcDbLine
 10
-88.51986675131036
 20
90.70618803085023
 30
0.0
 11
-87.54589702065857
 21
89.20618803085023
 31
0.0
  0
LINE
  5
168
330
1F
100
AcDbEntity
  8
0
  6
Continuous
 62
     7
100
AcDbLine
 10
-87.49353182587413
 20
92.20618803085023
 30
0.0
 11
-88.51986675131036
 21
90.70618803085023
 31
0.0
  0
LINE
  5
169
330
1F
100
AcDbEntity
  8
0
  6
Continuous
 62
     7
100
AcDbLine
 10
-88.46750155652546
 20
93.70618803085023
 30
0.0
 11
-87.49353182587413
 21
92.20618803085023
 31
0.0
  0
LINE
  5
16A
330
1F
100
AcDbEntity
  8
0
  6
Continuous
 62
     7
100
AcDbLine
 10
-87.44116663108946
 20
95.20618803085023
 30
0.0
 11
-88.46750155652546
 21
93.70618803085023
 31
0.0
  0
LINE
  5
16B
330
1F
100
AcDbEntity
  8
0
  6
Continuous
 62
     7
100
AcDbLine
 10
-88.41513636174102
 20
96.70618803085023
 30
0.0
 11
-87.44116663108946
 21
95.20618803085023
 31
0.0
  0
LINE
  5
16C
330
1F
100
AcDbEntity
  8
0
  6
Continuous
 62
     7
100
AcDbLine
 10
-87.38880143630479
 20
98.20618803085023
 30
0.0
 11
-88.41513636174102
 21
96.70618803085023
 31
0.0
  0
LINE
  5
16D
330
1F
100
AcDbEntity
  8
0
  6
Continuous
 62
     7
100
AcDbLine
 10
-88.36277116695635
 20
99.70618803085023
 30
0.0
 11
-87.38880143630479
 21
98.20618803085023
 31
0.0
  0
LINE
  5
16E
330
1F
100
AcDbEntity
  8
0
  6
Continuous
 62
     7
100
AcDbLine
 10
-87.33643624152012
 20
101.2061880308502
 30
0.0
 11
-88.36277116695635
 21
99.70618803085023
 31
0.0
  0
LINE
  5
16F
330
1F
100
AcDbEntity
  8
0
  6
Continuous
 62
     7
100
AcDbLine
 10
-88.31040597217168
 20
102.7061880308502
 30
0.0
 11
-87.33643624152012
 21
101.2061880308502
 31
0.0
  0
LINE
  5
170
330
1F
100
AcDbEntity
  8
0
  6
Continuous
 62
     7
100
AcDbLine
 10
-88.82976880562398
 20
72.95191122992713
 30
0.0
 11
-88.81273660930162
 21
72.95004256809142
 31
0.0
  0
LINE
  5
171
330
1F
100
AcDbEntity
  8
0
  6
Continuous
 62
     7
100
AcDbLine
 10
-87.4297688056239
 20
72.70618803084886
 30
0.0
 11
-88.81273660930162
 21
72.95004256809142
 31
0.0
  0
LINE
  5
172
330
1F
100
AcDbEntity
  8
0
  6
Continuous
 62
     7
100
AcDbLine
 10
-87.4297688056239
 20
72.70618803084886
 30
0.0
 11
-67.32976880562376
 21
72.7061880308517
 31
0.0
  0
LINE
  5
173
330
1F
100
AcDbEntity
  8
0
  6
Continuous
 62
     7
100
AcDbLine
 10
-67.39516986856222
 20
148.7044754437457
 30
0.0
 11
-67.37292079083784
 21
148.7050580563501
 31
0.0
  0
LINE
  5
174
330
1F
100
AcDbEntity
  8
0
  6
Continuous
 62
     7
100
AcDbLine
 10
-68.82976880562398
 20
102.7061880308502
 30
0.0
 11
-68.82976880562398
 21
84.70618803085023
 31
0.0
  0
LINE
  5
175
330
1F
100
AcDbEntity
  8
1
  6
Continuous
 62
     7
100
AcDbLine
 10
-85.10893655473456
 20
148.2044754437457
 30
0.0
 11
-85.07976880562398
 21
148.2044754437457
 31
0.0
  0
LINE
  5
176
330
1F
100
AcDbEntity
  8
0
  6
Continuous
 62
     7
100
AcDbLine
 10
-136.4583999059069
 20
152.1831181724649
 30
0.0
 11
-150.2943695496729
 21
149.7434634200056
 31
0.0
  0
LINE
  5
177
330
1F
100
AcDbEntity
  8
0
  6
Continuous
 62
     7
100
AcDbLine
 10
-131.4796840665552
 20
129.7061880308511
 30
0.0
 11
-135.2999439752278
 21
151.3719585971197
 31
0.0
  0
LINE
  5
178
330
1F
100
AcDbEntity
  8
0
  6
Continuous
 62
     7
100
AcDbLine
 10
-128.4705837332279
 20
106.8819615339035
 30
0.0
 11
-141.5360116523865
 21
104.5781740772541
 31
0.0
  0
LINE
  5
179
330
1F
100
AcDbEntity
  8
0
  6
Continuous
 62
     7
100
AcDbLine
 10
-149.1454312851074
 20
143.2275107283122
 30
0.0
 11
-143.547644286849
 21
111.4808830949961
 31
0.0
  0
LINE
  5
17A
330
1F
100
AcDbEntity
  8
0
  6
Continuous
 62
     7
100
AcDbLine
 10
-152.2774363606714
 20
126.7219223593562
 30
0.0
 11
-152.1606468798118
 21
126.0595762998458
 31
0.0
  0
LINE
  5
17B
330
1F
100
AcDbEntity
  8
0
  6
Continuous
 62
     7
100
AcDbLine
 10
-151.9524525902185
 20
134.9573766404012
 30
0.0
 11
-149.0385391157572
 21
118.4317521289688
 31
0.0
  0
LINE
  5
17C
330
1F
100
AcDbEntity
  8
0
  6
Continuous
 62
     7
100
AcDbLine
 10
-127.659424157883
 20
108.0404174645826
 30
0.0
 11
-131.4796840665552
 21
129.7061880308511
 31
0.0
  0
LINE
  5
17D
330
1F
100
AcDbEntity
  8
0
  6
Continuous
 62
     7
100
AcDbLine
 10
-44.32976880562342
 20
129.5325398531725
 30
0.0
 11
-44.32976880562342
 21
127.0928851007134
 31
0.0
  0
LINE
  5
17E
330
1F
100
AcDbEntity
  8
0
  6
Continuous
 62
     7
100
AcDbLine
 10
-90.32976880562364
 20
129.5325398531724
 30
0.0
 11
-90.32976880562364
 21
127.092885100713
 31
0.0
  0
LINE
  5
17F
330
1F
100
AcDbEntity
  8
0
  6
DASH_CENTER
 62
     2
100
AcDbLine
 10
-147.6140075997578
 20
126.8734509870949
 30
0.0
 11
-120.0225510278634
 21
131.7385692177658
 31
0.0
  0
LINE
  5
180
330
1F
100
AcDbEntity
  8
1
  6
Continuous
 62
     7
100
AcDbLine
 10
-141.5514121015446
 20
105.7061880308508
 30
0.0
 11
-142.0732549313493
 21
108.6657057842202
 31
0.0
  0
LINE
  5
181
330
1F
100
AcDbEntity
  8
0
  6
Continuous
 62
     7
100
AcDbLine
 10
-151.3938737498495
 20
140.2061880308508
 30
0.0
 11
-150.9375403955308
 21
137.6089832358001
 31
0.0
  0
LINE
  5
182
330
1F
100
AcDbEntity
  8
0
  6
Continuous
 62
     7
100
AcDbLine
 10
-147.1825896679505
 20
116.23781686684
 30
0.0
 11
-146.1228220962991
 21
110.2061880308508
 31
0.0
  0
LINE
  5
183
330
1F
100
AcDbEntity
  8
1
  6
Continuous
 62
     2
100
AcDbLine
 10
-132.2625704036973
 20
149.8888557951267
 30
0.0
 11
-137.9096792440259
 21
148.8931181435795
 31
0.0
  0
LINE
  5
184
330
1F
100
AcDbEntity
  8
1
  6
Continuous
 62
     2
100
AcDbLine
 10
-130.9637521373498
 20
109.5008080230915
 30
0.0
 11
-125.3166432970211
 21
110.4965456746384
 31
0.0
  0
ARC
  5
185
102
{ACAD_REACTORS
330
1FC
102
}
330
1F
100
AcDbEntity
  8
1
  6
Continuous
 62
     4
100
AcDbCircle
 10
-209.4765289394131
 20
131.7061880308509
 30
0.0
 40
0.1667934993195868
100
AcDbArc
 50
119.7519359345702
 51
240.2480640651972
  0
ARC
  5
186
102
{ACAD_REACTORS
330
1FC
102
}
330
1F
100
AcDbEntity
  8
1
  6
Continuous
 62
     4
100
AcDbCircle
 10
-192.4826541246097
 20
131.7061880308509
 30
0.0
 40
0.1666084302318906
100
AcDbArc
 50
299.7524870746457
 51
60.24751292553867
  0
ARC
  5
187
102
{ACAD_REACTORS
330
1FC
102
}
330
1F
100
AcDbEntity
  8
1
  6
Continuous
 62
     4
100
AcDbCircle
 10
-200.9796840665571
 20
136.371224077408
 30
0.0
 40
0.3332168604686469
100
AcDbArc
 50
60.24751292420579
 51
119.751935934501
  0
ARC
  5
188
102
{ACAD_REACTORS
330
1FC
102
}
330
1F
100
AcDbEntity
  8
1
  6
Continuous
 62
     4
100
AcDbCircle
 10
-200.9796840665571
 20
127.041151984294
 30
0.0
 40
0.3332168604687439
100
AcDbArc
 50
240.248064065482
 51
299.7524870757784
  0
ARC
  5
189
102
{ACAD_REACTORS
330
1FD
102
}
330
1F
100
AcDbEntity
  8
1
  6
Continuous
 62
     4
100
AcDbCircle
 10
-202.3125515084316
 20
130.2862454790031
 30
0.0
 40
0.3332168604665071
100
AcDbArc
 50
180.0
 51
0.0
  0
ARC
  5
18A
102
{ACAD_REACTORS
330
1FD
102
}
330
1F
100
AcDbEntity
  8
1
  6
Continuous
 62
     4
100
AcDbCircle
 10
-199.6468166246845
 20
128.7625552600167
 30
0.0
 40
0.3332168604638071
100
AcDbArc
 50
180.0
 51
0.0
  0
ARC
  5
18B
102
{ACAD_REACTORS
330
1FE
102
}
330
1F
100
AcDbEntity
  8
1
  6
Continuous
 62
     4
100
AcDbCircle
 10
-203.6454189503042
 20
133.895092568396
 30
0.0
 40
0.3332168604683829
100
AcDbArc
 50
0.0
 51
180.0
  0
ARC
  5
18C
102
{ACAD_REACTORS
330
1FE
102
}
330
1F
100
AcDbEntity
  8
1
  6
Continuous
 62
     4
100
AcDbCircle
 10
-201.3129009270255
 20
128.1911377002819
 30
0.0
 40
0.3332168604687581
100
AcDbArc
 50
240.0183606309408
 51
60.01836063124705
  0
ARC
  5
18D
102
{ACAD_REACTORS
330
1FF
102
}
330
1F
100
AcDbEntity
  8
1
  6
Continuous
 62
     4
100
AcDbCircle
 10
-204.978286392175
 20
133.1261305826991
 30
0.0
 40
0.3332168604675019
100
AcDbArc
 50
0.0
 51
180.0
  0
ARC
  5
18E
102
{ACAD_REACTORS
330
1FF
102
}
330
1F
100
AcDbEntity
  8
1
  6
Continuous
 62
     4
100
AcDbCircle
 10
-204.978286392175
 20
130.2862454790031
 30
0.0
 40
0.3332168604674166
100
AcDbArc
 50
180.0
 51
0.0
  0
ARC
  5
18F
102
{ACAD_REACTORS
330
1FB
102
}
330
1F
100
AcDbEntity
  8
1
  6
Continuous
 62
     4
100
AcDbCircle
 10
-196.9810817409347
 20
133.126074276453
 30
0.0
 40
0.3332168604680034
100
AcDbArc
 50
240.018360631244
 51
60.01836063115181
  0
ARC
  5
190
102
{ACAD_REACTORS
330
1FB
102
}
330
1F
100
AcDbEntity
  8
1
  6
Continuous
 62
     4
100
AcDbCircle
 10
-196.9810817409347
 20
131.7061880308509
 30
0.0
 40
0.3332168604680987
100
AcDbArc
 50
270.0
 51
90.0
  0
ARC
  5
191
102
{ACAD_REACTORS
330
1FB
102
}
330
1F
100
AcDbEntity
  8
1
  6
Continuous
 62
     4
100
AcDbCircle
 10
-196.9810817409347
 20
130.2862454790031
 30
0.0
 40
0.3332168604680915
100
AcDbArc
 50
299.981639368753
 51
119.9816393687927
  0
ARC
  5
192
330
1F
100
AcDbEntity
  8
1
  6
Continuous
 62
     7
100
AcDbCircle
 10
-269.481232708526
 20
83.1061880308506
 30
0.0
 40
0.5000000000001137
100
AcDbArc
 50
90.0
 51
179.9999999999739
  0
ARC
  5
193
330
1F
100
AcDbEntity
  8
1
  6
Continuous
 62
     7
100
AcDbCircle
 10
-269.481232708526
 20
75.30618803085088
 30
0.0
 40
0.5
100
AcDbArc
 50
180.0
 51
270.0
  0
ARC
  5
194
330
1F
100
AcDbEntity
  8
1
  6
Continuous
 62
     7
100
AcDbCircle
 10
-132.4781354245842
 20
75.30618803085088
 30
0.0
 40
0.5
100
AcDbArc
 50
270.0
 51
0.0
  0
ARC
  5
195
330
1F
100
AcDbEntity
  8
1
  6
Continuous
 62
     7
100
AcDbCircle
 10
-132.4781354245842
 20
83.1061880308506
 30
0.0
 40
0.5
100
AcDbArc
 50
0.00000000002606
 51
90.0
  0
ARC
  5
196
330
1F
100
AcDbEntity
  8
0
  6
Continuous
 62
     7
100
AcDbCircle
 10
-128.6442319108951
 20
107.8667692869155
 30
0.0
 40
0.9999999999998325
100
AcDbArc
 50
280.0000000000168
 51
10.00000000001096
  0
ARC
  5
197
330
1F
100
AcDbEntity
  8
0
  6
Continuous
 62
     7
100
AcDbCircle
 10
-136.2847517282399
 20
151.1983104194526
 30
0.0
 40
0.9999999999999387
100
AcDbArc
 50
10.00000000000908
 51
100.0000000000026
  0
ARC
  5
198
330
1F
100
AcDbEntity
  8
0
  6
Continuous
 62
     7
100
AcDbCircle
 10
-149.2524804836728
 20
143.8346169019319
 30
0.0
 40
6.000000000000202
100
AcDbArc
 50
99.99999999998523
 51
125.7152166026293
  0
CIRCLE
  5
199
330
1F
100
AcDbEntity
  8
1
  6
Continuous
 62
     7
100
AcDbCircle
 10
-67.32976880562376
 20
79.20618803085097
 30
0.0
 40
4.400000000000091
  0
SPLINE
  5
19A
330
1F
100
AcDbEntity
  8
0
  6
Continuous
 62
     7
100
AcDbSpline
210
0.0
220
0.0
230
1.0
 70
    24
 71
     3
 72
    44
 73
    40
 74
    38
 42
0.000000001
 43
0.0000000001
 44
0.00000001
 40
0.0
 40
0.0
 40
0.0
 40
0.0
 40
0.4060368616894292
 40
0.7017496155551741
 40
0.9055596422601669
 40
1.035888322466957
 40
1.111157036838179
 40
1.149787166036516
 40
1.170200090724697
 40
1.340630723107046
 40
1.527572168704229
 40
1.680171600758259
 40
1.841312411615076
 40
1.952349981481732
 40
2.066748277515886
 40
2.126431509118093
 40
2.18694724529663
 40
2.310876683182526
 40
2.437818057863196
 40
2.56763831891991
 40
2.700204415933839
 40
2.835203822248811
 40
2.972464869239705
 40
3.111845085805098
 40
3.253202000843029
 40
3.39668039289394
 40
3.541627172972616
 40
3.687890811347553
 40
3.83531977828715
 40
3.983709928693266
 40
4.132726806668913
 40
4.249106230852695
 40
4.365698042997764
 40
5.624698213715542
 40
6.883698384433313
 40
8.907418763733105
 40
10.93113914303294
 40
14.10497411267079
 40
17.27880908526143
 40
17.27880908526143
 40
17.27880908526143
 40
17.27880908526143
 10
-50.01372875147411
 20
148.2527515641035
 30
0.0
 10
-50.14902799247342
 20
148.2562944994166
 30
0.0
 10
-50.38286437363626
 20
148.2624177205537
 30
0.0
 10
-50.68461415016548
 20
148.2703193165354
 30
0.0
 10
-50.89449269230307
 20
148.2758151795789
 30
0.0
 10
-51.03091506816471
 20
148.2793875252134
 30
0.0
 10
-51.11229634586593
 20
148.2815185689685
 30
0.0
 10
-51.15705159352236
 20
148.2826905263734
 30
0.0
 10
-51.23351661064494
 20
148.2846928333147
 30
0.0
 10
-51.35940179237252
 20
148.2879892528099
 30
0.0
 10
-51.52933404421717
 20
148.2924390854289
 30
0.0
 10
-51.69617075001654
 20
148.2968078583217
 30
0.0
 10
-51.8377148340266
 20
148.3005143206041
 30
0.0
 10
-51.96652956955509
 20
148.3038874531657
 30
0.0
 10
-52.06153670099152
 20
148.3063753024579
 30
0.0
 10
-52.13970899205546
 20
148.3084223159407
 30
0.0
 10
-52.22105724170855
 20
148.3105524948258
 30
0.0
 10
-52.32481718982585
 20
148.3132695446893
 30
0.0
 10
-52.45167072992594
 20
148.3165913215411
 30
0.0
 10
-52.5814021698796
 20
148.3199884588527
 30
0.0
 10
-52.7138186999493
 20
148.3234559077236
 30
0.0
 10
-52.84871464207323
 20
148.326988282284
 30
0.0
 10
-52.98588117903812
 20
148.3305801144629
 30
0.0
 10
-53.12516615939083
 20
148.3342274200341
 30
0.0
 10
-53.26652287792061
 20
148.3379289759789
 30
0.0
 10
-53.40973448178067
 20
148.3416791038053
 30
0.0
 10
-53.55458109961596
 20
148.3454720459795
 30
0.0
 10
-53.70074412449297
 20
148.3492994594852
 30
0.0
 10
-53.84805454616016
 20
148.3531569186333
 30
0.0
 10
-53.9962823998721
 20
148.357038401585
 30
0.0
 10
-54.134163952633
 20
148.3606489571114
 30
0.0
 10
-54.26144969147239
 20
148.3639820514855
 30
0.0
 10
-54.75860307337509
 20
148.3770004709519
 30
0.0
 10
-55.63649952159182
 20
148.3999889984907
 30
0.0
 10
-57.14988765041724
 20
148.4396184613359
 30
0.0
 10
-58.91809516526466
 20
148.4859206046379
 30
0.0
 10
-61.32436222439826
 20
148.548930925123
 30
0.0
 10
-64.11386944278001
 20
148.6219767423605
 30
0.0
 10
-66.22903436087195
 20
148.6773642850117
 30
0.0
 10
-67.2866168204099
 20
148.7050580563501
 30
0.0
 11
-50.01372875147411
 21
148.2527515641035
 31
0.0
 11
-50.41962647447203
 21
148.263380370043
 31
0.0
 11
-50.71523789496262
 21
148.271121227515
 31
0.0
 11
-50.91897808106172
 21
148.2764563520486
 31
0.0
 11
-51.04926210088484
 21
148.2798679591734
 31
0.0
 11
-51.12450502254752
 21
148.2818382644187
 31
0.0
 11
-51.16312191416539
 21
148.2828494833138
 31
0.0
 11
-51.1835278438541
 21
148.2833838313882
 31
0.0
 11
-51.35390007391533
 21
148.2878451852422
 31
0.0
 11
-51.54077745934808
 21
148.2927387418002
 31
0.0
 11
-51.69332459938799
 21
148.2967333292449
 31
0.0
 11
-51.85441019131351
 21
148.300951503921
 31
0.0
 11
-51.9654097113782
 21
148.3038581286476
 31
0.0
 11
-52.07976880597346
 21
148.3068527269294
 31
0.0
 11
-52.13943158562282
 21
148.3084150517979
 31
0.0
 11
-52.19992658456999
 21
148.3099991690957
 31
0.0
 11
-52.32381355493272
 21
148.313243263585
 31
0.0
 11
-52.45071142997472
 21
148.3165662013882
 31
0.0
 11
-52.5804872048703
 21
148.3199644996511
 31
0.0
 11
-52.71300787479369
 21
148.32343467552
 31
0.0
 11
-52.84796102018381
 21
148.3269685480007
 31
0.0
 11
-52.98517503124206
 21
148.3305616233325
 31
0.0
 11
-53.12450748568834
 21
148.3342101720567
 31
0.0
 11
-53.26581596124196
 21
148.3379104647147
 31
0.0
 11
-53.40924518683136
 21
148.3416662911667
 31
0.0
 11
-53.55414229726864
 21
148.3454605555361
 31
0.0
 11
-53.70035581474772
 21
148.3492892912371
 31
0.0
 11
-53.84773426146246
 21
148.3531485316838
 31
0.0
 11
-53.99607356227016
 21
148.3570329329804
 31
0.0
 11
-54.14503937588351
 21
148.3609337400922
 31
0.0
 11
-54.26137891974525
 21
148.3639801982632
 31
0.0
 11
-54.37793077878825
 21
148.3670322161029
 31
0.0
 11
-55.63649952159176
 21
148.3999889984913
 31
0.0
 11
-56.89506826439526
 21
148.4329457808797
 31
0.0
 11
-58.91809516526462
 21
148.4859206046383
 31
0.0
 11
-60.94112206613403
 21
148.5388954283969
 31
0.0
 11
-64.1138694417961
 21
148.6219767423348
 31
0.0
 11
-67.2866168204099
 21
148.7050580563501
 31
0.0
  0
SPLINE
  5
19B
330
1F
100
AcDbEntity
  8
0
  6
Continuous
 62
     7
100
AcDbSpline
210
0.0
220
0.0
230
1.0
 70
    24
 71
     3
 72
    11
 73
     7
 74
     5
 42
0.000000001
 43
0.0000000001
 44
0.00000001
 40
0.0
 40
0.0
 40
0.0
 40
0.0
 40
0.0006564079305835
 40
0.0013128158607812
 40
0.0222397966250683
 40
0.0431667773903437
 40
0.0431667773903437
 40
0.0431667773903437
 40
0.0431667773903437
 10
-67.32976880562376
 20
148.7061880308502
 30
0.0
 10
-67.32955007795844
 20
148.7061823032647
 30
0.0
 10
-67.32911262262789
 20
148.7061708480938
 30
0.0
 10
-67.32170189742727
 20
148.705976791427
 30
0.0
 10
-67.3075366300211
 20
148.7056058608443
 30
0.0
 10
-67.29359009028042
 20
148.7052406578478
 30
0.0
 10
-67.2866168204099
 20
148.7050580563501
 30
0.0
 11
-67.32976880562376
 21
148.7061880308502
 31
0.0
 11
-67.32911262262772
 21
148.7061708480939
 31
0.0
 11
-67.32845643963208
 21
148.7061536653375
 31
0.0
 11
-67.30753663002118
 21
148.7056058608438
 31
0.0
 11
-67.2866168204099
 21
148.7050580563501
 31
0.0
  0
SPLINE
  5
19C
330
1F
100
AcDbEntity
  8
0
  6
Continuous
 62
     7
100
AcDbSpline
210
0.0
220
0.0
230
1.0
 70
     8
 71
     3
 72
    27
 73
    23
 74
    21
 42
0.000000001
 43
0.0000000001
 44
0.00000001
 40
0.0
 40
0.0
 40
0.0
 40
0.0
 40
0.0002368629974922
 40
0.0004736718718035
 40
0.0007104477524671
 40
0.0009472094104332
 40
0.0011839779246363
 40
0.0014207720829781
 40
0.0016576129387906
 40
0.001894519274597
 40
0.0021315120958608
 40
0.0023686101582097
 40
0.0026058343974372
 40
0.0028432035201739
 40
0.0030807383718728
 40
0.0033184575886736
 40
0.0035563819034998
 40
0.0037945298614952
 40
0.004032922062877
 40
0.0042715769411903
 40
0.0045104921847262
 40
0.0047497088409143
 40
0.0047497088409143
 40
0.0047497088409143
 40
0.0047497088409143
 10
-260.5970073893845
 20
72.88487093837193
 30
0.0
 10
-260.5970863431864
 20
72.88487052462116
 30
0.0
 10
-260.5972442327974
 20
72.88486971185374
 30
0.0
 10
-260.5974810489072
 20
72.88487121924905
 30
0.0
 10
-260.5977178073045
 20
72.88487475101627
 30
0.0
 10
-260.5979545098955
 20
72.88488049528956
 30
0.0
 10
-260.5981911558646
 20
72.88488840164455
 30
0.0
 10
-260.5984277456795
 20
72.88489848356338
 30
0.0
 10
-260.5986642789111
 20
72.88491073737231
 30
0.0
 10
-260.5989007559201
 20
72.88492516400072
 30
0.0
 10
-260.5991371763113
 20
72.8849417630994
 30
0.0
 10
-260.599373540433
 20
72.88496053467962
 30
0.0
 10
-260.5996098478987
 20
72.88498147859703
 30
0.0
 10
-260.599846099049
 20
72.88500459479476
 30
0.0
 10
-260.6000822935148
 20
72.88502988305372
 30
0.0
 10
-260.6003184315907
 20
72.88505734352175
 30
0.0
 10
-260.6005545130673
 20
72.88508697508448
 30
0.0
 10
-260.6007905376615
 20
72.88511878111089
 30
0.0
 10
-260.6010265073111
 20
72.8851527483326
 30
0.0
 10
-260.6012624062274
 20
72.885188924266
 30
0.0
 10
-260.6014982663006
 20
72.88522712596742
 30
0.0
 10
-260.6016552969592
 20
72.88525438085736
 30
0.0
 10
-260.6017338605453
 20
72.88526802410956
 30
0.0
 11
-260.5970073893845
 21
72.88487093837193
 31
0.0
 11
-260.5972442511624
 21
72.88487015631046
 31
0.0
 11
-260.5974810560674
 21
72.88487154681297
 31
0.0
 11
-260.5977178052464
 21
72.88487510989712
 31
0.0
 11
-260.5979544975256
 21
72.88488084553796
 31
0.0
 11
-260.5981911340357
 21
72.88488875374753
 31
0.0
 11
-260.5984277136201
 21
72.88489883445595
 31
0.0
 11
-260.5986642373936
 21
72.8849110876701
 31
0.0
 11
-260.5989007042167
 21
72.884925513275
 31
0.0
 11
-260.5991371151879
 21
72.88494211127096
 31
0.0
 11
-260.5993734691857
 21
72.88496088149805
 31
0.0
 11
-260.5996097672918
 21
72.88498182395045
 31
0.0
 11
-260.5998460084024
 21
72.88500493842389
 31
0.0
 11
-260.600082193583
 21
72.88503022490644
 31
0.0
 11
-260.6003183217478
 21
72.88505768314894
 31
0.0
 11
-260.6005543939448
 21
72.88508731313306
 31
0.0
 11
-260.6007904091067
 21
72.8851191145659
 31
0.0
 11
-260.6010263682644
 21
72.88515308742086
 31
0.0
 11
-260.6012622703692
 21
72.88518923136303
 31
0.0
 11
-260.6014980939864
 21
72.88522754260507
 31
0.0
 11
-260.6017338605453
 21
72.88526802410956
 31
0.0
  0
SPLINE
  5
19D
330
1F
100
AcDbEntity
  8
0
  6
Continuous
 62
     7
100
AcDbSpline
210
0.0
220
0.0
230
1.0
 70
     8
 71
     3
 72
    13
 73
     9
 74
     7
 42
0.000000001
 43
0.0000000001
 44
0.00000001
 40
0.0
 40
0.0
 40
0.0
 40
0.0
 40
0.6640613120230455
 40
1.293516654422149
 40
1.917198144838239
 40
2.54655484590261
 40
3.188435237149249
 40
3.848907649144056
 40
3.848907649144056
 40
3.848907649144056
 40
3.848907649144056
 10
-252.4093946612738
 20
108.7061880308508
 30
0.0
 10
-252.6309855313018
 20
108.7137674120648
 30
0.0
 10
-253.0626195913441
 20
108.7285312074472
 30
0.0
 10
-253.690652703639
 20
108.8625011646152
 30
0.0
 10
-254.2829856514488
 20
109.0751043085708
 30
0.0
 10
-254.8422415359805
 20
109.3725643748968
 30
0.0
 10
-255.3698242504303
 20
109.7463960501032
 30
0.0
 10
-255.6794985039639
 20
110.0514723061969
 30
0.0
 10
-255.8365460368109
 20
110.2061880308508
 30
0.0
 11
-252.4093946612738
 21
108.7061880308508
 31
0.0
 11
-253.0720836891689
 21
108.7488574561175
 31
0.0
 11
-253.6884574241533
 21
108.8765189172125
 31
0.0
 11
-254.2751407242191
 21
109.0881348629304
 31
0.0
 11
-254.8316851890253
 21
109.3819853647059
 31
0.0
 11
-255.3535674915302
 21
109.7556821677135
 31
0.0
 11
-255.8365460368109
 21
110.2061880308508
 31
0.0
  0
SPLINE
  5
19E
330
1F
100
AcDbEntity
  8
0
  6
Continuous
 62
     7
100
AcDbSpline
210
0.0
220
0.0
230
1.0
 70
     8
 71
     3
 72
    13
 73
     9
 74
     7
 42
0.000000001
 43
0.0000000001
 44
0.00000001
 40
0.0
 40
0.0
 40
0.0
 40
0.0
 40
0.7837127337238776
 40
1.536255346191541
 40
2.258536559373409
 40
2.952628017036504
 40
3.626073184862095
 40
4.305098377535275
 40
4.305098377535275
 40
4.305098377535275
 40
4.305098377535275
 10
-250.5654943832631
 20
140.2061880308508
 30
0.0
 10
-250.3545648342594
 20
140.360616038896
 30
0.0
 10
-249.9410948983028
 20
140.6633300736266
 30
0.0
 10
-249.2852165819835
 20
141.0361825684969
 30
0.0
 10
-248.6247344229644
 20
141.333307811079
 30
0.0
 10
-247.960261316198
 20
141.5462442100645
 30
0.0
 10
-247.2889694980726
 20
141.6822093948713
 30
0.0
 10
-246.8377689159942
 20
141.6981732025377
 30
0.0
 10
-246.6112378423695
 20
141.706188030852
 30
0.0
 11
-250.5654943832631
 21
140.2061880308508
 31
0.0
 11
-249.9242065263271
 21
140.6566938939883
 31
0.0
 11
-249.2710058803941
 21
141.0303906969964
 31
0.0
 11
-248.6112013373689
 21
141.3242411987724
 31
0.0
 11
-247.9501554652632
 21
141.5358571444904
 31
0.0
 11
-247.2889210532385
 21
141.6635186055853
 31
0.0
 11
-246.6112378423695
 21
141.706188030852
 31
0.0
  0
SPLINE
  5
19F
330
1F
100
AcDbEntity
  8
0
  6
Continuous
 62
     7
100
AcDbSpline
210
0.0
220
0.0
230
1.0
 70
     8
 71
     3
 72
    13
 73
     9
 74
     7
 42
0.000000001
 43
0.0000000001
 44
0.00000001
 40
0.0
 40
0.0
 40
0.0
 40
0.0
 40
0.7837127337239008
 40
1.536255346191589
 40
2.258536559373483
 40
2.952628017036551
 40
3.626073184862114
 40
4.305098377535379
 40
4.305098377535379
 40
4.305098377535379
 40
4.305098377535379
 10
-151.3938737498469
 20
140.2061880308508
 30
0.0
 10
-151.6048032988507
 20
140.360616038896
 30
0.0
 10
-152.0182732348071
 20
140.6633300736267
 30
0.0
 10
-152.6741515511266
 20
141.0361825684969
 30
0.0
 10
-153.3346337101455
 20
141.333307811079
 30
0.0
 10
-153.999106816912
 20
141.5462442100644
 30
0.0
 10
-154.6703986350375
 20
141.6822093948713
 30
0.0
 10
-155.1215992171158
 20
141.6981732025376
 30
0.0
 10
-155.3481302907406
 20
141.706188030852
 30
0.0
 11
-151.3938737498469
 21
140.2061880308508
 31
0.0
 11
-152.0351616067829
 21
140.6566938939883
 31
0.0
 11
-152.6883622527159
 21
141.0303906969964
 31
0.0
 11
-153.3481667957412
 21
141.3242411987724
 31
0.0
 11
-154.0092126678468
 21
141.5358571444904
 31
0.0
 11
-154.6704470798715
 21
141.6635186055853
 31
0.0
 11
-155.3481302907406
 21
141.706188030852
 31
0.0
  0
SPLINE
  5
1A0
330
1F
100
AcDbEntity
  8
0
  6
Continuous
 62
     7
100
AcDbSpline
210
0.0
220
0.0
230
1.0
 70
     8
 71
     3
 72
    13
 73
     9
 74
     7
 42
0.000000001
 43
0.0000000001
 44
0.00000001
 40
0.0
 40
0.0
 40
0.0
 40
0.0
 40
0.6640613120230171
 40
1.293516654422121
 40
1.917198144838184
 40
2.54655484590253
 40
3.188435237149146
 40
3.848907649144057
 40
3.848907649144057
 40
3.848907649144057
 40
3.848907649144057
 10
-149.5499734718362
 20
108.7061880308508
 30
0.0
 10
-149.3283826018082
 20
108.7137674120647
 30
0.0
 10
-148.8967485417659
 20
108.7285312074472
 30
0.0
 10
-148.2687154294711
 20
108.8625011646152
 30
0.0
 10
-147.6763824816612
 20
109.0751043085708
 30
0.0
 10
-147.1171265971296
 20
109.3725643748968
 30
0.0
 10
-146.5895438826798
 20
109.7463960501033
 30
0.0
 10
-146.2798696291461
 20
110.0514723061969
 30
0.0
 10
-146.1228220962991
 20
110.2061880308508
 30
0.0
 11
-149.5499734718362
 21
108.7061880308508
 31
0.0
 11
-148.8872844439412
 21
108.7488574561175
 31
0.0
 11
-148.2709107089567
 21
108.8765189172125
 31
0.0
 11
-147.684227408891
 21
109.0881348629304
 31
0.0
 11
-147.1276829440848
 21
109.3819853647059
 31
0.0
 11
-146.6058006415799
 21
109.7556821677135
 31
0.0
 11
-146.1228220962991
 21
110.2061880308508
 31
0.0
  0
SPLINE
  5
1A1
330
1F
100
AcDbEntity
  8
0
  6
Continuous
 62
     7
100
AcDbSpline
210
0.0
220
0.0
230
1.0
 70
     8
 71
     3
 72
    27
 73
    23
 74
    21
 42
0.000000001
 43
0.0000000001
 44
0.00000001
 40
0.0
 40
0.0
 40
0.0
 40
0.0
 40
0.000236862997407
 40
0.0004736718716899
 40
0.0007104477525239
 40
0.0009472094102911
 40
0.0011839779246362
 40
0.0014207720829781
 40
0.0016576129387338
 40
0.0018945192745118
 40
0.0021315120957473
 40
0.0023686101580961
 40
0.0026058343973237
 40
0.0028432035201735
 40
0.003080738371929
 40
0.0033184575885886
 40
0.0035563819034148
 40
0.003794529861382
 40
0.0040329220628201
 40
0.0042715769410491
 40
0.0045104921847533
 40
0.0047497088408854
 40
0.0047497088408854
 40
0.0047497088408854
 40
0.0047497088408854
 10
-141.3623607437255
 20
72.88487093837193
 30
0.0
 10
-141.3622817899236
 20
72.88487052462116
 30
0.0
 10
-141.3621239003127
 20
72.88486971185374
 30
0.0
 10
-141.3618870842028
 20
72.88487121924904
 30
0.0
 10
-141.3616503258055
 20
72.88487475101627
 30
0.0
 10
-141.3614136232146
 20
72.88488049528955
 30
0.0
 10
-141.3611769772454
 20
72.88488840164455
 30
0.0
 10
-141.3609403874305
 20
72.88489848356338
 30
0.0
 10
-141.3607038541989
 20
72.8849107373723
 30
0.0
 10
-141.36046737719
 20
72.88492516400073
 30
0.0
 10
-141.3602309567988
 20
72.88494176309942
 30
0.0
 10
-141.3599945926772
 20
72.88496053467959
 30
0.0
 10
-141.3597582852113
 20
72.88498147859704
 30
0.0
 10
-141.3595220340611
 20
72.88500459479476
 30
0.0
 10
-141.3592858395951
 20
72.8850298830537
 30
0.0
 10
-141.3590497015193
 20
72.88505734352177
 30
0.0
 10
-141.3588136200428
 20
72.88508697508446
 30
0.0
 10
-141.3585775954486
 20
72.88511878111088
 30
0.0
 10
-141.358341625799
 20
72.88515274833259
 30
0.0
 10
-141.3581057268826
 20
72.88518892426603
 30
0.0
 10
-141.3578698668094
 20
72.88522712596738
 30
0.0
 10
-141.3577128361508
 20
72.88525438085738
 30
0.0
 10
-141.3576342725647
 20
72.88526802410956
 30
0.0
 11
-141.3623607437255
 21
72.88487093837193
 31
0.0
 11
-141.3621238819477
 21
72.88487015631046
 31
0.0
 11
-141.3618870770427
 21
72.88487154681297
 31
0.0
 11
-141.3616503278635
 21
72.88487510989712
 31
0.0
 11
-141.3614136355845
 21
72.88488084553796
 31
0.0
 11
-141.3611769990742
 21
72.88488875374753
 31
0.0
 11
-141.3609404194899
 21
72.88489883445595
 31
0.0
 11
-141.3607038957165
 21
72.8849110876701
 31
0.0
 11
-141.3604674288934
 21
72.884925513275
 31
0.0
 11
-141.3602310179221
 21
72.88494211127096
 31
0.0
 11
-141.3599946639244
 21
72.88496088149805
 31
0.0
 11
-141.3597583658183
 21
72.88498182395045
 31
0.0
 11
-141.3595221247076
 21
72.88500493842389
 31
0.0
 11
-141.3592859395269
 21
72.88503022490644
 31
0.0
 11
-141.3590498113623
 21
72.88505768314894
 31
0.0
 11
-141.3588137391653
 21
72.88508731313306
 31
0.0
 11
-141.3585777240034
 21
72.8851191145659
 31
0.0
 11
-141.3583417648457
 21
72.88515308742086
 31
0.0
 11
-141.3581058627409
 21
72.88518923136303
 31
0.0
 11
-141.3578700391236
 21
72.88522754260507
 31
0.0
 11
-141.3576342725647
 21
72.88526802410956
 31
0.0
  0
SPLINE
  5
1A2
330
1F
100
AcDbEntity
  8
0
  6
Continuous
 62
     7
100
AcDbSpline
210
0.0
220
0.0
230
1.0
 70
    24
 71
     3
 72
   115
 73
   111
 74
   109
 42
0.000000001
 43
0.0000000001
 44
0.00000001
 40
0.0
 40
0.0
 40
0.0
 40
0.0
 40
0.0006564079306284
 40
0.0013128158607431
 40
0.0222397966235469
 40
0.0431667773865368
 40
3.217001749780343
 40
6.390836719379332
 40
8.414557098709274
 40
10.43827747806357
 40
11.69727764882043
 40
12.95627781957685
 40
13.07286963172529
 40
13.18924905591239
 40
13.33826593389232
 40
13.48665608430259
 40
13.63408505124614
 40
13.78034868962512
 40
13.92529546970772
 40
14.06877386176235
 40
14.1632244026769
 40
14.25681751776686
 40
14.34951099337237
 40
14.44126261583368
 40
14.53203017149105
 40
14.62177144668468
 40
14.710447367189
 40
14.79792262732992
 40
14.88415780476113
 40
14.96911347713611
 40
15.05275022210863
 40
15.13502861733262
 40
15.19554435351245
 40
15.25522758511574
 40
15.33186101365513
 40
15.40701733463015
 40
15.48066345102053
 40
15.54612362335697
 40
15.61024885128046
 40
15.67301801732733
 40
15.73441000403383
 40
15.79440369393626
 40
15.84946254000576
 40
15.90321133697742
 40
15.95563497589561
 40
16.00671834780463
 40
16.05644634374885
 40
16.10480385477269
 40
16.1517757719204
 40
16.15378092742444
 40
16.15581123151382
 40
16.15789452146815
 40
16.16005863456708
 40
16.1623314080902
 40
16.16474067931718
 40
16.16731428552767
 40
16.17008006400123
 40
16.17306585201753
 40
16.17629948685618
 40
16.17980880579685
 40
16.18362164611911
 40
16.18776584510261
 40
16.19226924002701
 40
16.19715966817193
 40
16.20246496681695
 40
16.20821297324176
 40
16.21443152472594
 40
16.22114845854914
 40
16.22839161199099
 40
16.23618882233112
 40
16.24456792684912
 40
16.2535567628247
 40
16.2631831675374
 40
16.27347497826691
 40
16.28446003229281
 40
16.29616616689482
 40
16.30862121935244
 40
16.32185302694541
 40
16.33588942695328
 40
16.35075825665572
 40
16.36648735333233
 40
16.38310455426276
 40
16.40063769672663
 40
16.4191146180036
 40
16.43856315537323
 40
16.45901114611522
 40
16.48048642750912
 40
16.50301683683466
 40
16.52663021137136
 40
16.55135438839898
 40
16.57721720519695
 40
16.60424649904511
 40
16.63247010722292
 40
16.66191586701013
 40
16.69261161568625
 40
16.72458519053107
 40
16.75786442882398
 40
16.79247716784493
 40
16.82845124487318
 40
16.86581449718868
 40
16.9045947620708
 40
16.94481987679943
 40
16.98651767865386
 40
17.0297160049141
 40
17.07444269285939
 40
17.12072557976976
 40
17.16859250292439
 40
17.21807129960339
 40
17.26918980708588
 40
17.321975862652
 40
17.321975862652
 40
17.321975862652
 40
17.321975862652
 10
-67.32976880562376
 20
148.7061880308502
 30
0.0
 10
-67.32998753328908
 20
148.7061823032647
 30
0.0
 10
-67.3304249886196
 20
148.7061708480937
 30
0.0
 10
-67.33783571382
 20
148.7059767914261
 30
0.0
 10
-67.35200098122449
 20
148.7056058608448
 30
0.0
 10
-68.42352998044151
 20
148.6775468865982
 30
0.0
 10
-70.54566816832231
 20
148.6219767425198
 30
0.0
 10
-73.33517538663784
 20
148.5489309253118
 30
0.0
 10
-75.7414424457857
 20
148.4859206047987
 30
0.0
 10
-77.50964996067346
 20
148.4396184614612
 30
0.0
 10
-79.02303808954208
 20
148.3999889985812
 30
0.0
 10
-79.90093453778525
 20
148.3770004710218
 30
0.0
 10
-80.39808791970285
 20
148.3639820515447
 30
0.0
 10
-80.52537365854577
 20
148.3606489571677
 30
0.0
 10
-80.66325521131058
 20
148.3570384016384
 30
0.0
 10
-80.81148306502655
 20
148.3531569186836
 30
0.0
 10
-80.95879348669772
 20
148.3492994595324
 30
0.0
 10
-81.1049565115786
 20
148.3454720460236
 30
0.0
 10
-81.24980312941773
 20
148.3416791038466
 30
0.0
 10
-81.3773846331201
 20
148.3383382645945
 30
0.0
 10
-81.48785411436447
 20
148.3354455194208
 30
0.0
 10
-81.58140109103327
 20
148.332995905625
 30
0.0
 10
-81.6740487365017
 20
148.3305698416456
 30
0.0
 10
-81.76575485157542
 20
148.3281684325073
 30
0.0
 10
-81.85647723706033
 20
148.3257927832348
 30
0.0
 10
-81.94617473988164
 20
148.3234439714595
 30
0.0
 10
-82.03477518692662
 20
148.3211238871007
 30
0.0
 10
-82.12220733520151
 20
148.3188343957219
 30
0.0
 10
-82.20839982571198
 20
148.3165773659242
 30
0.0
 10
-82.29331324962077
 20
148.3143538296642
 30
0.0
 10
-82.37690819809063
 20
148.3121648188987
 30
0.0
 10
-82.45235929281402
 20
148.3101890624489
 30
0.0
 10
-82.51982861917125
 20
148.3084223159595
 30
0.0
 10
-82.58541693476333
 20
148.3067048254707
 30
0.0
 10
-82.65588377296619
 20
148.3048595863713
 30
0.0
 10
-82.7310033111875
 20
148.3028925120341
 30
0.0
 10
-82.80239970693975
 20
148.3010229316138
 30
0.0
 10
-82.87012033170151
 20
148.2992496046442
 30
0.0
 10
-82.93421654876852
 20
148.2975711861304
 30
0.0
 10
-82.99695716864743
 20
148.2959282651784
 30
0.0
 10
-83.05832108111093
 20
148.2943213945786
 30
0.0
 10
-83.1171157676267
 20
148.2927818015282
 30
0.0
 10
-83.17336359727423
 20
148.2913089002719
 30
0.0
 10
-83.22708894128282
 20
148.2899020526269
 30
0.0
 10
-83.27948958133653
 20
148.2885298935757
 30
0.0
 10
-83.33055041365708
 20
148.2871928186248
 30
0.0
 10
-83.38025633446637
 20
148.2858912232804
 30
0.0
 10
-83.42859223998616
 20
148.284625503049
 30
0.0
 10
-83.4610259831677
 20
148.2837761955936
 30
0.0
 10
-83.47802261576342
 20
148.2833311231053
 30
0.0
 10
-83.48006150003175
 20
148.2832777330418
 30
0.0
 10
-83.4821533520082
 20
148.28322295597
 30
0.0
 10
-83.48432599943307
 20
148.2831660631949
 30
0.0
 10
-83.48660727004699
 20
148.2831063260215
 30
0.0
 10
-83.4890249915904
 20
148.2830430157547
 30
0.0
 10
-83.49160699180379
 20
148.2829754036996
 30
0.0
 10
-83.49438109842762
 20
148.2829027611611
 30
0.0
 10
-83.49737513920243
 20
148.2828243594442
 30
0.0
 10
-83.50061694186871
 20
148.2827394698538
 30
0.0
 10
-83.50413433416692
 20
148.2826473636949
 30
0.0
 10
-83.5079551438375
 20
148.2825473122725
 30
0.0
 10
-83.51210719862104
 20
148.2824385868915
 30
0.0
 10
-83.51661832625798
 20
148.2823204588571
 30
0.0
 10
-83.52151635448877
 20
148.2821921994739
 30
0.0
 10
-83.52682911105397
 20
148.2820530800472
 30
0.0
 10
-83.53258442369403
 20
148.2819023718817
 30
0.0
 10
-83.53881012014939
 20
148.2817393462825
 30
0.0
 10
-83.54553402816066
 20
148.2815632745547
 30
0.0
 10
-83.55278397546822
 20
148.281373428003
 30
0.0
 10
-83.56058778981259
 20
148.2811690779326
 30
0.0
 10
-83.56897329893425
 20
148.2809494956483
 30
0.0
 10
-83.5779683305737
 20
148.2807139524552
 30
0.0
 10
-83.58760071247146
 20
148.2804617196582
 30
0.0
 10
-83.59789827236797
 20
148.2801920685624
 30
0.0
 10
-83.60888883800372
 20
148.2799042704725
 30
0.0
 10
-83.62060023711922
 20
148.2795975966937
 30
0.0
 10
-83.63306029745495
 20
148.2792713185308
 30
0.0
 10
-83.64629684675141
 20
148.2789247072891
 30
0.0
 10
-83.66033771274908
 20
148.2785570342732
 30
0.0
 10
-83.67521072318841
 20
148.2781675707882
 30
0.0
 10
-83.69094370580993
 20
148.2777555881391
 30
0.0
 10
-83.70756448835411
 20
148.2773203576308
 30
0.0
 10
-83.7251008985615
 20
148.2768611505685
 30
0.0
 10
-83.74358076417245
 20
148.2763772382567
 30
0.0
 10
-83.76303191292759
 20
148.2758678920009
 30
0.0
 10
-83.78348217256733
 20
148.2753323831057
 30
0.0
 10
-83.80495937083217
 20
148.2747699828763
 30
0.0
 10
-83.82749133546258
 20
148.2741799626175
 30
0.0
 10
-83.85110589419912
 20
148.2735615936343
 30
0.0
 10
-83.87583087478218
 20
148.2729141472319
 30
0.0
 10
-83.90169410495238
 20
148.2722368947149
 30
0.0
 10
-83.92872341245003
 20
148.2715291073885
 30
0.0
 10
-83.95694662501575
 20
148.2707900565577
 30
0.0
 10
-83.98639157038996
 20
148.2700190135273
 30
0.0
 10
-84.01708607631318
 20
148.2692152496024
 30
0.0
 10
-84.04905797052588
 20
148.2683780360879
 30
0.0
 10
-84.0823350807686
 20
148.2675066442889
 30
0.0
 10
-84.11694523478171
 20
148.2666003455102
 30
0.0
 10
-84.15291626030586
 20
148.265658411057
 30
0.0
 10
-84.19027598508133
 20
148.2646801122338
 30
0.0
 10
-84.22905223684886
 20
148.2636647203462
 30
0.0
 10
-84.26927284334863
 20
148.2626115066986
 30
0.0
 10
-84.31096563232146
 20
148.2615197425965
 30
0.0
 10
-84.35415843150753
 20
148.2603886993445
 30
0.0
 10
-84.39887906864756
 20
148.2592176482477
 30
0.0
 10
-84.44515537148187
 20
148.258005860611
 30
0.0
 10
-84.49301516775111
 20
148.2567526077394
 30
0.0
 10
-84.54248628519555
 20
148.2554571609379
 30
0.0
 10
-84.59359655155592
 20
148.2541187915116
 30
0.0
 10
-84.6282195374059
 20
148.2532121567195
 30
0.0
 10
-84.64580885977364
 20
148.2527515641035
 30
0.0
 11
-67.32976880562376
 21
148.7061880308502
 31
0.0
 11
-67.33042498861985
 21
148.7061708480939
 31
0.0
 11
-67.33108117161544
 21
148.7061536653375
 31
0.0
 11
-67.35200098122655
 21
148.7056058608438
 31
0.0
 11
-67.37292079083784
 21
148.7050580563501
 31
0.0
 11
-70.54566816945163
 21
148.6219767423348
 31
0.0
 11
-73.71841554511357
 21
148.5388954283969
 31
0.0
 11
-75.74144244598293
 21
148.4859206046383
 31
0.0
 11
-77.76446934685248
 21
148.4329457808797
 31
0.0
 11
-79.02303808965598
 21
148.3999889984913
 31
0.0
 11
-80.28160683245949
 21
148.3670322161029
 31
0.0
 11
-80.39815869150243
 21
148.3639801982632
 31
0.0
 11
-80.51449823536413
 21
148.3609337400922
 31
0.0
 11
-80.66346404897749
 21
148.3570329329804
 31
0.0
 11
-80.81180334978517
 21
148.3531485316838
 31
0.0
 11
-80.9591817964998
 21
148.3492892912371
 31
0.0
 11
-81.10539531397899
 21
148.3454605555361
 31
0.0
 11
-81.25029242441636
 21
148.3416662911667
 31
0.0
 11
-81.39372165000579
 21
148.3379104647147
 31
0.0
 11
-81.48813982507654
 21
148.3354380377875
 31
0.0
 11
-81.5817008681412
 21
148.3329880556519
 31
0.0
 11
-81.67436258000545
 21
148.3305616233325
 31
0.0
 11
-81.76608276147512
 21
148.3281598458542
 31
0.0
 11
-81.85681921335602
 21
148.3257838282418
 31
0.0
 11
-81.94652973645393
 21
148.32343467552
 31
0.0
 11
-82.03517526993305
 21
148.3211134105329
 31
0.0
 11
-82.12262055448518
 21
148.31882357517
 31
0.0
 11
-82.20882618127303
 21
148.3165662013882
 31
0.0
 11
-82.29375274145914
 21
148.314342321144
 31
0.0
 11
-82.37736082620636
 21
148.3121529663943
 31
0.0
 11
-82.45961102667766
 21
148.3099991690956
 31
0.0
 11
-82.52010602562494
 21
148.3084150517979
 31
0.0
 11
-82.57976880527428
 21
148.3068527269294
 31
0.0
 11
-82.65637597345028
 21
148.3048466976319
 31
0.0
 11
-82.73150654022986
 21
148.3028793345028
 31
0.0
 11
-82.80512741993424
 21
148.300951503921
 31
0.0
 11
-82.87056516070344
 21
148.2992379563736
 31
0.0
 11
-82.93466841451185
 21
148.297559353597
 31
0.0
 11
-82.99741607113224
 21
148.2959162483821
 31
0.0
 11
-83.05878702033726
 21
148.2943091935196
 31
0.0
 11
-83.11876015189966
 21
148.2927387418002
 31
0.0
 11
-83.17380013067697
 21
148.2912974692327
 31
0.0
 11
-83.22753050927757
 21
148.2898904897528
 31
0.0
 11
-83.27993618392331
 21
148.2885181988668
 31
0.0
 11
-83.33100205083595
 21
148.287180992081
 31
0.0
 11
-83.38071300623733
 21
148.2858792649017
 31
0.0
 11
-83.42905394634931
 21
148.2846134128354
 31
0.0
 11
-83.47600976739363
 21
148.2833838313882
 31
0.0
 11
-83.47801423578095
 21
148.2833313425362
 31
0.0
 11
-83.48004384413579
 21
148.2832781953711
 31
0.0
 11
-83.48212642019867
 21
148.2832236611976
 31
0.0
 11
-83.48428979171005
 21
148.2831670113209
 31
0.0
 11
-83.48656178641042
 21
148.2831075170458
 31
0.0
 11
-83.48897023204032
 21
148.2830444496775
 31
0.0
 11
-83.49154295634018
 21
148.2829770805208
 31
0.0
 11
-83.49430778705052
 21
148.2829046808806
 31
0.0
 11
-83.4972925519118
 21
148.282826522062
 31
0.0
 11
-83.50052507866452
 21
148.28274187537
 31
0.0
 11
-83.5040331950492
 21
148.2826500121095
 31
0.0
 11
-83.50784472880626
 21
148.2825502035855
 31
0.0
 11
-83.51198750767624
 21
148.2824417211029
 31
0.0
 11
-83.51648935939963
 21
148.2823238359668
 31
0.0
 11
-83.5213781117169
 21
148.282195819482
 31
0.0
 11
-83.52668159236852
 21
148.2820569429537
 31
0.0
 11
-83.53242762909503
 21
148.2819064776866
 31
0.0
 11
-83.53864404963684
 21
148.2817436949859
 31
0.0
 11
-83.54535868173453
 21
148.2815678661564
 31
0.0
 11
-83.5525993531285
 21
148.2813782625032
 31
0.0
 11
-83.5603938915593
 21
148.2811741553311
 31
0.0
 11
-83.56877012476738
 21
148.2809548159453
 31
0.0
 11
-83.57775588049327
 21
148.2807195156506
 31
0.0
 11
-83.5873789864774
 21
148.2804675257521
 31
0.0
 11
-83.59766727046032
 21
148.2801981175546
 31
0.0
 11
-83.60864856018244
 21
148.2799105623632
 31
0.0
 11
-83.62035068338437
 21
148.2796041314829
 31
0.0
 11
-83.63280146780646
 21
148.2792780962185
 31
0.0
 11
-83.64602874118931
 21
148.2789317278751
 31
0.0
 11
-83.66006033127331
 21
148.2785642977577
 31
0.0
 11
-83.67492406579905
 21
148.2781750771712
 31
0.0
 11
-83.6906477725069
 21
148.2777633374206
 31
0.0
 11
-83.70725927913746
 21
148.2773283498108
 31
0.0
 11
-83.72478641343115
 21
148.2768693856468
 31
0.0
 11
-83.74325700312849
 21
148.2763857162336
 31
0.0
 11
-83.76269887596993
 21
148.2758766128763
 31
0.0
 11
-83.78313985969602
 21
148.2753413468797
 31
0.0
 11
-83.80460778204716
 21
148.2747791895487
 31
0.0
 11
-83.82713047076395
 21
148.2741894121885
 31
0.0
 11
-83.85073575358675
 21
148.2735712861039
 31
0.0
 11
-83.8754514582562
 21
148.2729240825999
 31
0.0
 11
-83.90130541251258
 21
148.2722470729815
 31
0.0
 11
-83.92832544409663
 21
148.2715395285536
 31
0.0
 11
-83.95653938074861
 21
148.2708007206213
 31
0.0
 11
-83.98597505020916
 21
148.2700299204894
 31
0.0
 11
-84.01666028021864
 21
148.2692263994631
 31
0.0
 11
-84.04862289851772
 21
148.2683894288472
 31
0.0
 11
-84.08189073284665
 21
148.2675182799467
 31
0.0
 11
-84.11649161094618
 21
148.2666122240665
 31
0.0
 11
-84.15245336055654
 21
148.2656705325118
 31
0.0
 11
-84.18980380941846
 21
148.2646924765873
 31
0.0
 11
-84.22857078527218
 21
148.2636773275981
 31
0.0
 11
-84.26878211585847
 21
148.2626243568492
 31
0.0
 11
-84.31046562891747
 21
148.2615328356454
 31
0.0
 11
-84.35364915219007
 21
148.260402035292
 31
0.0
 11
-84.39836051341635
 21
148.2592312270936
 31
0.0
 11
-84.44462754033721
 21
148.2580196823554
 31
0.0
 11
-84.4924780606927
 21
148.2567666723824
 31
0.0
 11
-84.54193990222376
 21
148.2554714684794
 31
0.0
 11
-84.59304089267042
 21
148.2541333419514
 31
0.0
 11
-84.64580885977364
 21
148.2527515641035
 31
0.0
  0
SPLINE
  5
1A3
330
1F
100
AcDbEntity
  8
0
  6
Continuous
 62
     7
100
AcDbSpline
210
0.0
220
0.0
230
1.0
 70
     8
 71
     3
 72
    15
 73
    11
 74
     9
 42
0.000000001
 43
0.0000000001
 44
0.00000001
 40
0.0
 40
0.0
 40
0.0
 40
0.0
 40
0.2650447219686884
 40
0.5598041933630851
 40
0.8381024387110924
 40
1.151331217961038
 40
1.464619997720126
 40
1.775893241522019
 40
2.081743122031772
 40
2.431679476194945
 40
2.431679476194945
 40
2.431679476194945
 40
2.431679476194945
 10
-142.5587479198007
 20
109.2737506674863
 30
0.0
 10
-142.5786293404619
 20
109.3598590354046
 30
0.0
 10
-142.6206211465135
 20
109.5417295670436
 30
0.0
 10
-142.7042460373495
 20
109.8085634169264
 30
0.0
 10
-142.8062741124793
 20
110.0858928011108
 30
0.0
 10
-142.9246080839157
 20
110.3634648279027
 30
0.0
 10
-143.0601658844348
 20
110.6452460591943
 30
0.0
 10
-143.2061069724172
 20
110.9189737454439
 30
0.0
 10
-143.367366026189
 20
111.1981976420292
 30
0.0
 10
-143.4849173260428
 20
111.3825240491823
 30
0.0
 10
-143.547644286849
 20
111.4808830949961
 30
0.0
 11
-142.5587479198007
 21
109.2737506674863
 31
0.0
 11
-142.6215001782567
 21
109.5312596172196
 31
0.0
 11
-142.7082142236294
 21
109.8129754689524
 31
0.0
 11
-142.8043038409189
 21
110.0741587369155
 31
0.0
 11
-142.9267562522644
 21
110.3624600996277
 31
0.0
 11
-143.0623911536153
 21
110.6448658952211
 31
0.0
 11
-143.208511294687
 21
110.9197111910708
 31
0.0
 11
-143.361797640016
 21
111.1843759703672
 31
0.0
 11
-143.547644286849
 21
111.4808830949961
 31
0.0
  0
SPLINE
  5
1A4
330
1F
100
AcDbEntity
  8
0
  6
Continuous
 62
     7
100
AcDbSpline
210
0.0
220
0.0
230
1.0
 70
     8
 71
     3
 72
    15
 73
    11
 74
     9
 42
0.000000001
 43
0.0000000001
 44
0.00000001
 40
0.0
 40
0.0
 40
0.0
 40
0.0
 40
0.6704545596180597
 40
1.368897800305418
 40
2.100863229713192
 40
2.863042141020322
 40
3.640898211445506
 40
4.44866394346847
 40
5.264021070659028
 40
6.109095753045937
 40
6.109095753045937
 40
6.109095753045937
 40
6.109095753045937
 10
-143.547644286849
 20
111.4808830949961
 30
0.0
 10
-143.6726156457485
 20
111.6662026731777
 30
0.0
 10
-143.9277754125866
 20
112.0445781375887
 30
0.0
 10
-144.3491999711715
 20
112.6041595631927
 30
0.0
 10
-144.7999118250252
 20
113.179474712811
 30
0.0
 10
-145.2736764342577
 20
113.7703408485438
 30
0.0
 10
-145.7624415467076
 20
114.3815528092175
 30
0.0
 10
-146.2550795196209
 20
115.0123018731119
 30
0.0
 10
-146.7503914224701
 20
115.6693952413058
 30
0.0
 10
-147.0679183785163
 20
116.1227794227705
 30
0.0
 10
-147.2295233176701
 20
116.3535287363015
 30
0.0
 11
-143.547644286849
 21
111.4808830949961
 31
0.0
 11
-143.9272205930542
 21
112.0335413483085
 31
0.0
 11
-144.344169061448
 21
112.5938778074381
 31
0.0
 11
-144.79476304142
 21
113.1707126566021
 31
0.0
 11
-145.2702779583841
 21
113.7663654546689
 31
0.0
 11
-145.7550710065177
 21
114.3746711068292
 31
0.0
 11
-146.2517111059156
 21
115.0117221953497
 31
0.0
 11
-146.7406457646723
 21
115.6642175167623
 31
0.0
 11
-147.2295233176701
 21
116.3535287363015
 31
0.0
  0
SPLINE
  5
1A5
330
1F
100
AcDbEntity
  8
0
  6
Continuous
 62
     7
100
AcDbSpline
210
0.0
220
0.0
230
1.0
 70
     8
 71
     3
 72
    15
 73
    11
 74
     9
 42
0.000000001
 43
0.0000000001
 44
0.00000001
 40
0.0
 40
0.0
 40
0.0
 40
0.0
 40
0.8310003209402385
 40
1.63166682751732
 40
2.423473138390965
 40
3.184486606081577
 40
3.928667798446078
 40
4.641500110892863
 40
5.320286055465256
 40
5.969505212659279
 40
5.969505212659279
 40
5.969505212659279
 40
5.969505212659279
 10
-150.9555941259539
 20
137.5408957852872
 30
0.0
 10
-150.8824358886366
 20
137.8080821309867
 30
0.0
 10
-150.7387898784718
 20
138.3327017765115
 30
0.0
 10
-150.497364154234
 20
139.1037532094587
 30
0.0
 10
-150.2492617011433
 20
139.8479968453717
 30
0.0
 10
-149.9977368937712
 20
140.5711807889766
 30
0.0
 10
-149.7528066226101
 20
141.268785719277
 30
0.0
 10
-149.5233637119556
 20
141.9427075815798
 30
0.0
 10
-149.3152641882163
 20
142.5905937862262
 30
0.0
 10
-149.2011957033085
 20
143.0183798305713
 30
0.0
 10
-149.1454312851074
 20
143.2275107283122
 30
0.0
 11
-150.9555941259539
 21
137.5408957852872
 31
0.0
 11
-150.7312170454967
 21
138.3410310611418
 31
0.0
 11
-150.4941469048527
 21
139.1057954715207
 31
0.0
 11
-150.2443673218345
 21
139.8571724699779
 31
0.0
 11
-149.9955375718203
 21
140.5763562109607
 31
0.0
 11
-149.7504851231128
 21
141.2790331950461
 31
0.0
 11
-149.5216996643415
 21
141.9541532703343
 31
0.0
 11
-149.3178258706484
 21
142.6015988962586
 31
0.0
 11
-149.1454312851074
 21
143.2275107283122
 31
0.0
  0
SPLINE
  5
1A6
330
1F
100
AcDbEntity
  8
0
  6
Continuous
 62
     7
100
AcDbSpline
210
0.0
220
0.0
230
1.0
 70
     8
 71
     3
 72
    11
 73
     7
 74
     5
 42
0.000000001
 43
0.0000000001
 44
0.00000001
 40
0.0
 40
0.0
 40
0.0
 40
0.0
 40
2.128659001676926
 40
4.143877937825334
 40
6.24056683582695
 40
8.285547402150241
 40
8.285547402150241
 40
8.285547402150241
 40
8.285547402150241
 10
-151.9524525902185
 20
134.9573766404012
 30
0.0
 10
-152.0847473719531
 20
134.2598263895291
 30
0.0
 10
-152.3422866941123
 20
132.9018995924536
 30
0.0
 10
-152.5232145988878
 20
130.8270059653995
 30
0.0
 10
-152.5375190761227
 20
128.7697076693959
 30
0.0
 10
-152.3634060093127
 20
127.3988122980573
 30
0.0
 10
-152.2774363606714
 20
126.7219223593562
 30
0.0
 11
-151.9524525902185
 21
134.9573766404012
 31
0.0
 11
-152.3130807426727
 21
132.8594880632807
 31
0.0
 11
-152.4945131998971
 21
130.8524530293485
 31
0.0
 11
-152.4905512199658
 21
128.7557678736569
 31
0.0
 11
-152.2774363606714
 21
126.7219223593562
 31
0.0
  0
SPLINE
  5
1A7
330
1F
100
AcDbEntity
  8
0
  6
Continuous
 62
     7
100
AcDbSpline
210
0.0
220
0.0
230
1.0
 70
     8
 71
     3
 72
    11
 73
     7
 74
     5
 42
0.000000001
 43
0.0000000001
 44
0.00000001
 40
0.0
 40
0.0
 40
0.0
 40
0.0
 40
0.7286307469870025
 40
1.392320885706414
 40
2.104962679211534
 40
2.783293138259756
 40
2.783293138259756
 40
2.783293138259756
 40
2.783293138259756
 10
-150.9555941259539
 20
137.5408957852872
 30
0.0
 10
-151.0791052975267
 20
137.3314226716019
 30
0.0
 10
-151.3151194586405
 20
136.9311461289574
 30
0.0
 10
-151.5841716330556
 20
136.2813668191437
 30
0.0
 10
-151.7987488615335
 20
135.6301519488632
 30
0.0
 10
-151.9020675449339
 20
135.1779166241232
 30
0.0
 10
-151.9524525902185
 20
134.9573766404012
 30
0.0
 11
-150.9555941259539
 21
137.5408957852872
 31
0.0
 11
-151.3102296568797
 21
136.904392520092
 31
0.0
 11
-151.5704309543496
 21
136.2938354905533
 31
0.0
 11
-151.7913217872243
 21
135.6162917155279
 31
0.0
 11
-151.9524525902185
 21
134.9573766404012
 31
0.0
  0
SPLINE
  5
1A8
330
1F
100
AcDbEntity
  8
0
  6
Continuous
 62
     7
100
AcDbSpline
210
0.0
220
0.0
230
1.0
 70
     8
 71
     3
 72
    11
 73
     7
 74
     5
 42
0.000000001
 43
0.0000000001
 44
0.00000001
 40
0.0
 40
0.0
 40
0.0
 40
0.0
 40
0.6750114760297322
 40
1.383914768014149
 40
2.130909787426277
 40
2.769149915629193
 40
2.769149915629193
 40
2.769149915629193
 40
2.769149915629193
 10
-149.0385391157572
 20
118.4317521289688
 30
0.0
 10
-148.9163774002022
 20
118.2426654898742
 30
0.0
 10
-148.6659203090804
 20
117.8549983230233
 30
0.0
 10
-148.2262864413916
 20
117.2961477927789
 30
0.0
 10
-147.7513312408236
 20
116.7819188971724
 30
0.0
 10
-147.39411083023
 20
116.4886506163916
 30
0.0
 10
-147.2295233176701
 20
116.3535287363015
 30
0.0
 11
-149.0385391157572
 21
118.4317521289688
 31
0.0
 11
-148.663712496907
 21
117.8703739154712
 31
0.0
 11
-148.2270727560054
 21
117.3119031326673
 31
0.0
 11
-147.7141477853784
 21
116.7688473939565
 31
0.0
 11
-147.2295233176701
 21
116.3535287363015
 31
0.0
  0
SPLINE
  5
1A9
330
1F
100
AcDbEntity
  8
0
  6
Continuous
 62
     7
100
AcDbSpline
210
0.0
220
0.0
230
1.0
 70
     8
 71
     3
 72
    11
 73
     7
 74
     5
 42
0.000000001
 43
0.0000000001
 44
0.00000001
 40
0.0
 40
0.0
 40
0.0
 40
0.0
 40
2.047700635262567
 40
4.147326030388856
 40
6.159933135755718
 40
8.285720878782467
 40
8.285720878782467
 40
8.285720878782467
 40
8.285720878782467
 10
-152.1606468798118
 20
126.0595762998458
 30
0.0
 10
-152.0096936916833
 20
125.3932240529337
 30
0.0
 10
-151.7039594912788
 20
124.0436224735942
 30
0.0
 10
-150.9861145763044
 20
122.1144696458911
 30
0.0
 10
-150.1064771074324
 20
120.2275252567498
 30
0.0
 10
-149.4009502503551
 20
119.0411584534549
 30
0.0
 10
-149.0385391157572
 20
118.4317521289688
 30
0.0
 11
-152.1606468798118
 21
126.0595762998458
 31
0.0
 11
-151.664498838027
 21
124.0728918722274
 31
0.0
 11
-150.9497331243524
 21
122.0986738551881
 31
0.0
 11
-150.0935913507728
 21
120.2772434756648
 31
0.0
 11
-149.0385391157572
 21
118.4317521289688
 31
0.0
  0
SPLINE
  5
1AA
330
1F
100
AcDbEntity
  8
0
  6
Continuous
 62
     7
100
AcDbSpline
210
0.0
220
0.0
230
1.0
 70
     8
 71
     3
 72
    15
 73
    11
 74
     9
 42
0.000000001
 43
0.0000000001
 44
0.00000001
 40
0.0
 40
0.0
 40
0.0
 40
0.0
 40
0.3458398976765137
 40
0.6465857655050793
 40
0.9522380261290239
 40
1.259477891423436
 40
1.548336316154593
 40
1.836909833353369
 40
2.123449599447235
 40
2.380362612576628
 40
2.380362612576628
 40
2.380362612576628
 40
2.380362612576628
 10
-149.1454312851074
 20
143.2275107283122
 30
0.0
 10
-149.118563499558
 20
143.3396296200277
 30
0.0
 10
-149.068331229908
 20
143.5492482354566
 30
0.0
 10
-149.0082320018282
 20
143.861014436346
 30
0.0
 10
-148.9609772936571
 20
144.1619396897556
 30
0.0
 10
-148.9270221436938
 20
144.4606999911255
 30
0.0
 10
-148.9071176541619
 20
144.7550442891151
 30
0.0
 10
-148.9027021995874
 20
145.0430941060488
 30
0.0
 10
-148.91309416357
 20
145.3205293588969
 30
0.0
 10
-148.9345150236492
 20
145.500468405007
 30
0.0
 10
-148.9446415733519
 20
145.5855331684466
 30
0.0
 11
-149.1454312851074
 21
143.2275107283122
 31
0.0
 11
-149.067523980396
 21
143.5644612969037
 31
0.0
 11
-149.0102408685362
 21
143.859701405421
 31
0.0
 11
-148.9632036000914
 21
144.1617126630477
 31
0.0
 11
-148.928729952256
 21
144.467012356432
 31
0.0
 11
-148.9096239018232
 21
144.7552382209769
 31
0.0
 11
-148.9052403089836
 21
145.0437784430486
 31
0.0
 11
-148.9175322226238
 21
145.3300544414803
 31
0.0
 11
-148.9446415733519
 21
145.5855331684466
 31
0.0
  0
SPLINE
  5
1AB
330
1F
100
AcDbEntity
  8
0
  6
Continuous
 62
     7
100
AcDbSpline
210
0.0
220
0.0
230
1.0
 70
     8
 71
     3
 72
    23
 73
    19
 74
    17
 42
0.000000001
 43
0.0000000001
 44
0.00000001
 40
0.0
 40
0.0
 40
0.0
 40
0.0
 40
3.012640341735966
 40
6.020876848338413
 40
9.025990241056375
 40
12.02948415305957
 40
13.00423878406751
 40
14.05788060849347
 40
15.00126949450999
 40
16.01842937086452
 40
16.93561811900016
 40
17.9224339553392
 40
18.85052583013468
 40
19.77893549451674
 40
21.28079258457781
 40
22.78371480288102
 40
23.42657415522953
 40
24.06949611297851
 40
24.06949611297851
 40
24.06949611297851
 40
24.06949611297851
 10
-87.1655139684159
 20
140.9979698860316
 30
0.0
 10
-87.64668734760596
 20
140.1304706944258
 30
0.0
 10
-88.608330736114
 20
138.3967404105912
 30
0.0
 10
-89.58529160180342
 20
135.3025159282954
 30
0.0
 10
-90.1956662382567
 20
133.2406371899289
 30
0.0
 10
-90.35157441374461
 20
128.3399517169063
 30
0.0
 10
-90.31501879536859
 20
130.6144501361183
 30
0.0
 10
-90.24843854268687
 20
131.5026782744343
 30
0.0
 10
-90.13619482597728
 20
132.5266242669088
 30
0.0
 10
-89.9873162972383
 20
133.4677493380882
 30
0.0
 10
-89.7947502673897
 20
134.4242337662572
 30
0.0
 10
-89.5688461721212
 20
135.3406869306273
 30
0.0
 10
-89.30293765426612
 20
136.2508018380035
 30
0.0
 10
-88.94462178966212
 20
137.3116216883488
 30
0.0
 10
-88.45834388464101
 20
138.5303162892844
 30
0.0
 10
-87.93208535047711
 20
139.6274151969666
 30
0.0
 10
-87.49223288576296
 20
140.4465099337968
 30
0.0
 10
-87.27602489129221
 20
140.8166097444913
 30
0.0
 10
-87.1679156313894
 20
141.00166866059
 30
0.0
 11
-87.1655139684159
 21
140.9979698860316
 31
0.0
 11
-88.53143274187272
 21
138.3127757047004
 31
0.0
 11
-89.52461211149324
 21
135.4732191164052
 31
0.0
 11
-90.12759092360159
 21
132.5292213149611
 31
0.0
 11
-90.32976880562364
 21
129.5325398531724
 31
0.0
 11
-90.3085002877915
 21
130.5070624238816
 31
0.0
 11
-90.23772194718754
 21
131.5583242945295
 31
0.0
 11
-90.13236147853135
 21
132.4958112341174
 31
0.0
 11
-89.97455653012844
 21
133.500655407267
 31
0.0
 11
-89.79322323284825
 21
134.399740183575
 31
0.0
 11
-89.55716714128334
 21
135.3579066703919
 31
0.0
 11
-89.29685543868969
 21
136.2487446722317
 31
0.0
 11
-88.99979665052933
 21
137.1283471854431
 31
0.0
 11
-88.442982469064
 21
138.5231707176735
 31
0.0
 11
-87.79383970059894
 21
139.8786738935237
 31
0.0
 11
-87.48889153978048
 21
140.444602127211
 31
0.0
 11
-87.1679156313894
 21
141.00166866059
 31
0.0
  0
SPLINE
  5
1AC
330
1F
100
AcDbEntity
  8
0
  6
Continuous
 62
     7
100
AcDbSpline
210
0.0
220
0.0
230
1.0
 70
     8
 71
     3
 72
    17
 73
    13
 74
    11
 42
0.000000001
 43
0.0000000001
 44
0.00000001
 40
0.0
 40
0.0
 40
0.0
 40
0.0
 40
0.151570464821966
 40
0.3031494613936291
 40
1.238167152227905
 40
2.172825732519907
 40
3.12656473075181
 40
4.079976943143479
 40
6.057405231897492
 40
8.033833317082859
 40
10.13669963567841
 40
12.23918253780621
 40
12.23918253780621
 40
12.23918253780621
 40
12.23918253780621
 10
-87.0836207014371
 20
115.4442574227544
 30
0.0
 10
-87.10963084512771
 20
115.4875716429474
 30
0.0
 10
-87.16165258427226
 20
115.5742025288234
 30
0.0
 10
-87.37115261024361
 20
115.9298015796862
 30
0.0
 10
-87.6995378521229
 20
116.5183576971488
 30
0.0
 10
-88.12372086045764
 20
117.3587661642793
 30
0.0
 10
-88.51509338400149
 20
118.2217413655989
 30
0.0
 10
-88.99969477925998
 20
119.4227984693183
 30
0.0
 10
-89.51354453094864
 20
120.9783914845727
 30
0.0
 10
-89.97337822569911
 20
122.9461463572335
 30
0.0
 10
-90.27295566356796
 20
124.9895187306786
 30
0.0
 10
-90.31083224759304
 20
126.3918055942802
 30
0.0
 10
-90.32976880562364
 20
127.092885100713
 30
0.0
 11
-87.0836207014371
 21
115.4442574227544
 31
0.0
 11
-87.1614690580303
 21
115.5743083335921
 31
0.0
 11
-87.23845100801566
 21
115.7048838739993
 31
0.0
 11
-87.69387820491416
 21
116.5214891359008
 31
0.0
 11
-88.11506331378655
 21
117.3558690055573
 31
0.0
 11
-88.50895260935994
 21
118.2244709283136
 31
0.0
 11
-88.86573398927851
 21
119.108609997749
 31
0.0
 11
-89.48517624008876
 21
120.9865114692434
 31
0.0
 11
-89.93748379236854
 21
122.9104880426672
 31
0.0
 11
-90.23148658329887
 21
124.9927005951613
 31
0.0
 11
-90.32976880562364
 21
127.092885100713
 31
0.0
  0
SPLINE
  5
1AD
330
1F
100
AcDbEntity
  8
0
  6
Continuous
 62
     7
100
AcDbSpline
210
0.0
220
0.0
230
1.0
 70
     8
 71
     3
 72
    15
 73
    11
 74
     9
 42
0.000000001
 43
0.0000000001
 44
0.00000001
 40
0.0
 40
0.0
 40
0.0
 40
0.0
 40
2.102482902133682
 40
4.205349220762242
 40
6.181777305978301
 40
8.159205594841906
 40
10.04652461498256
 40
11.9352110715825
 40
12.08679006816106
 40
12.23836053300214
 40
12.23836053300214
 40
12.23836053300214
 40
12.23836053300214
 10
-44.32976880562342
 20
127.0928851007134
 30
0.0
 10
-44.34870594984599
 20
126.3918046161753
 30
0.0
 10
-44.38658370640004
 20
124.989515796199
 30
0.0
 10
-44.68615252547059
 20
122.9461578034311
 30
0.0
 10
-45.14601708981733
 20
120.9783514239232
 30
0.0
 10
-45.75754591022532
 20
119.1268991954863
 30
0.0
 10
-46.51242370561589
 20
117.3616720011371
 30
0.0
 10
-47.12701770599278
 20
116.2036829807094
 30
0.0
 10
-47.49788523857644
 20
115.5742029747056
 30
0.0
 10
-47.54990683666389
 20
115.4875717915809
 30
0.0
 10
-47.57591690980985
 20
115.4442574227544
 30
0.0
 11
-44.32976880562342
 21
127.0928851007134
 31
0.0
 11
-44.42805102794713
 21
124.992700595171
 31
0.0
 11
-44.72205381887829
 21
122.9104880426675
 31
0.0
 11
-45.17436137115519
 21
120.9865114692541
 31
0.0
 11
-45.79380362196844
 21
119.108609997749
 31
0.0
 11
-46.53608822194945
 21
117.3733905135821
 31
0.0
 11
-47.4210866032314
 21
115.7048838739992
 31
0.0
 11
-47.49806855321661
 21
115.5743083335921
 31
0.0
 11
-47.57591690980985
 21
115.4442574227544
 31
0.0
  0
SPLINE
  5
1AE
330
1F
100
AcDbEntity
  8
0
  6
Continuous
 62
     7
100
AcDbSpline
210
0.0
220
0.0
230
1.0
 70
     8
 71
     3
 72
    25
 73
    21
 74
    19
 42
0.000000001
 43
0.0000000001
 44
0.00000001
 40
0.0
 40
0.0
 40
0.0
 40
0.0
 40
1.046377962531565
 40
2.178844598052989
 40
3.530419259516204
 40
5.037986602381224
 40
6.458718140067472
 40
7.880182747851893
 40
9.295713951969233
 40
10.71169823384626
 40
12.04926993834163
 40
13.53805126433021
 40
14.95130624927752
 40
16.36440799158432
 40
17.78039227347643
 40
19.19592347761771
 40
22.04696551397668
 40
24.89457588124066
 40
25.98477650992032
 40
27.07342129950653
 40
27.07342129950653
 40
27.07342129950653
 40
27.07342129950653
 10
-80.11876884197932
 20
148.3712962789391
 30
0.0
 10
-79.8250061133625
 20
148.5594489386749
 30
0.0
 10
-79.21331190190156
 20
148.9512341326294
 30
0.0
 10
-78.1858413789864
 20
149.5263773139751
 30
0.0
 10
-76.99300979494708
 20
150.1172771904407
 30
0.0
 10
-75.67645774504786
 20
150.6695955360435
 30
0.0
 10
-74.30602663419432
 20
151.145739826443
 30
0.0
 10
-72.93855217422879
 20
151.528891920718
 30
0.0
 10
-71.55186249866728
 20
151.8277342732578
 30
0.0
 10
-70.17722514272714
 20
152.0375988333718
 30
0.0
 10
-68.76840839821881
 20
152.1682408955782
 30
0.0
 10
-67.35493780727984
 20
152.2133450567318
 30
0.0
 10
-65.91634914483643
 20
152.1697698194859
 30
0.0
 10
-64.50721461908705
 20
152.0414004285836
 30
0.0
 10
-63.10764204253683
 20
151.8277351149711
 30
0.0
 10
-61.25506023701265
 20
151.4284362300596
 30
0.0
 10
-58.98589698882431
 20
150.7175646195128
 30
0.0
 10
-56.92162280213225
 20
149.7761850431239
 30
0.0
 10
-55.4584243320552
 20
148.9583859618612
 30
0.0
 10
-54.84650838392054
 20
148.5668996637347
 30
0.0
 10
-54.54076888782561
 20
148.3712962820437
 30
0.0
 11
-80.11876884197932
 21
148.3712962789391
 31
0.0
 11
-79.2323091976137
 21
148.9272604334202
 31
0.0
 11
-78.24558149108987
 21
149.48300238404
 31
0.0
 11
-77.0340162113191
 21
150.0820546693161
 31
0.0
 11
-75.64396817349461
 21
150.6656005097493
 31
0.0
 11
-74.30191413968139
 21
151.1318290738602
 31
0.0
 11
-72.93317333856226
 21
151.5153786167064
 31
0.0
 11
-71.54941305388348
 21
151.813600120808
 31
0.0
 11
-70.14964976197916
 21
152.0273153851271
 31
0.0
 11
-68.81779267027443
 21
152.1508255175865
 31
0.0
 11
-67.32976880562364
 21
152.1983104194412
 31
0.0
 11
-65.91716173233067
 21
152.1555212863947
 31
0.0
 11
-64.50988784926778
 21
152.0273153851271
 31
0.0
 11
-63.11012455736297
 21
151.813600120808
 31
0.0
 11
-61.72636427268481
 21
151.5153786167064
 31
0.0
 11
-59.00604845642037
 21
150.6619604550302
 31
0.0
 11
-56.41395612015731
 21
149.4830023840402
 31
0.0
 11
-55.46356558804817
 21
148.9488720170226
 31
0.0
 11
-54.54076888782561
 21
148.3712962820437
 31
0.0
  0
SPLINE
  5
1AF
330
1F
100
AcDbEntity
  8
0
  6
Continuous
 62
     7
100
AcDbSpline
210
0.0
220
0.0
230
1.0
 70
     8
 71
     3
 72
    19
 73
    15
 74
    13
 42
0.000000001
 43
0.0000000001
 44
0.00000001
 40
0.0
 40
0.0
 40
0.0
 40
0.0
 40
3.012640341702462
 40
6.020876848292314
 40
9.025990241007554
 40
12.02948415300873
 40
13.00423878396221
 40
14.0578806084418
 40
15.03807331701654
 40
16.01843003243307
 40
17.89770521650594
 40
19.77810903050728
 40
21.92265692309184
 40
24.06764858191995
 40
24.06764858191995
 40
24.06764858191995
 40
24.06764858191995
 10
-47.49402364283117
 20
140.9979698860316
 30
0.0
 10
-47.01285026016278
 20
140.1304699858011
 30
0.0
 10
-46.0512068648909
 20
138.396738285651
 30
0.0
 10
-45.07424605123535
 20
135.3025244095955
 30
0.0
 10
-44.46387121696093
 20
133.2406054275724
 30
0.0
 10
-44.30796361386793
 20
128.3400364008772
 30
0.0
 10
-44.34451835192266
 20
130.6143557385472
 30
0.0
 10
-44.41192552763496
 20
131.5140652542952
 30
0.0
 10
-44.52498485582173
 20
132.5385603947594
 30
0.0
 10
-44.72472256547306
 20
133.7950196466255
 30
0.0
 10
-45.07026340455563
 20
135.3429125827479
 30
0.0
 10
-45.66324616363587
 20
137.2199313527145
 30
0.0
 10
-46.44461781048636
 20
139.1279782917794
 30
0.0
 10
-47.14259647900209
 20
140.3770621953251
 30
0.0
 10
-47.49162191630626
 20
141.0016687584646
 30
0.0
 11
-47.49402364283117
 21
140.9979698860316
 31
0.0
 11
-46.12810486937424
 21
138.3127757047004
 31
0.0
 11
-45.13492549975376
 21
135.4732191164052
 31
0.0
 11
-44.53194668764542
 21
132.5292213149611
 31
0.0
 11
-44.32976880562342
 21
129.5325398531725
 31
0.0
 11
-44.35103732345326
 21
130.5070624238281
 31
0.0
 11
-44.42181566405952
 21
131.5583242945297
 31
0.0
 11
-44.53208862010588
 21
132.5322943254336
 31
0.0
 11
-44.68498108111851
 21
133.5006554072674
 31
0.0
 11
-45.09604650568801
 21
135.334422141087
 31
0.0
 11
-45.6597409607175
 21
137.1283471854433
 31
0.0
 11
-46.48323970790047
 21
139.1084824020093
 31
0.0
 11
-47.49162191630626
 21
141.0016687584646
 31
0.0
  0
ARC
  5
1B0
102
{ACAD_REACTORS
330
1FD
102
}
330
1F
100
AcDbEntity
  8
1
  6
Continuous
 62
     4
100
AcDbCircle
 10
-202.3125515084316
 20
134.6498208016857
 30
0.0
 40
0.3332168604720884
100
AcDbArc
 50
29.99999999963214
 51
180.0
  0
ARC
  5
1B1
102
{ACAD_REACTORS
330
1FD
102
}
330
1F
100
AcDbEntity
  8
1
  6
Continuous
 62
     4
100
AcDbCircle
 10
-199.6468166246845
 20
134.6498208016857
 30
0.0
 40
0.3332168604711114
100
AcDbArc
 50
0.0
 51
149.9999999998254
  0
ARC
  5
1B2
102
{ACAD_REACTORS
330
1FD
102
}
330
1F
100
AcDbEntity
  8
1
  6
Continuous
 62
     4
100
AcDbCircle
 10
-200.9796840665571
 20
132.0080098121369
 30
0.0
 40
0.1666084302394446
100
AcDbArc
 50
209.9999999988329
 51
330.0000000002191
  0
ARC
  5
1B3
102
{ACAD_REACTORS
330
1FE
102
}
330
1F
100
AcDbEntity
  8
1
  6
Continuous
 62
     4
100
AcDbCircle
 10
-203.3122020898358
 20
129.717728889473
 30
0.0
 40
0.6664337209350037
100
AcDbArc
 50
180.0
 51
240.0183606310234
  0
ARC
  5
1B4
102
{ACAD_REACTORS
330
1FB
102
}
330
1F
100
AcDbEntity
  8
1
  6
Continuous
 62
     4
100
AcDbCircle
 10
-198.3139491828073
 20
133.8879475390688
 30
0.0
 40
0.333216860466728
100
AcDbArc
 50
60.01836063165342
 51
180.0
  0
ARC
  5
1B5
102
{ACAD_REACTORS
330
1FB
102
}
330
1F
100
AcDbEntity
  8
1
  6
Continuous
 62
     4
100
AcDbCircle
 10
-198.3139491828073
 20
129.5244285226328
 30
0.0
 40
0.3332168604683829
100
AcDbArc
 50
180.0
 51
299.981639368476
  0
ARC
  5
1B6
330
1F
100
AcDbEntity
  8
0
  6
Continuous
 62
     7
100
AcDbCircle
 10
-50.09225959639764
 20
145.2537795891768
 30
0.0
 40
3.000000000000032
100
AcDbArc
 50
0.99999999999905
 51
88.50000000000179
  0
ARC
  5
1B7
330
1F
100
AcDbEntity
  8
0
  6
Continuous
 62
     7
100
AcDbCircle
 10
-250.3085969675696
 20
145.7061880308509
 30
0.0
 40
3.0
100
AcDbArc
 50
90.0
 51
169.999999999996
  0
ARC
  5
1B8
330
1F
100
AcDbEntity
  8
0
  6
Continuous
 62
     7
100
AcDbCircle
 10
-151.6507711655405
 20
145.7061880308509
 30
0.0
 40
3.000000000000113
100
AcDbArc
 50
10.00000000000367
 51
90.0
  0
ARC
  5
1B9
330
1F
100
AcDbEntity
  8
0
  6
Continuous
 62
     7
100
AcDbCircle
 10
-84.5672780148501
 20
145.2537795891768
 30
0.0
 40
3.000000000000044
100
AcDbArc
 50
91.49999999999835
 51
179.0000000000009
  0
LWPOLYLINE
  5
1BA
330
1F
100
AcDbEntity
  8
0
  6
Continuous
 62
     7
 60
     1
100
AcDbPolyline
 90
        2
 70
     0
 43
0.0
 10
-3765.885808198948
 20
223.3802440035911
 10
-3729.802103888197
 20
199.9394154754609
  0
LWPOLYLINE
  5
1BB
330
1F
100
AcDbEntity
  8
0
  6
Continuous
 62
     7
 60
     1
100
AcDbPolyline
 90
        2
 70
     0
 43
0.0
 10
-3649.491589216657
 20
223.3802440035911
 10
-3613.407884905917
 20
204.9394154754609
  0
LWPOLYLINE
  5
1BC
330
1F
100
AcDbEntity
  8
0
  6
Continuous
 62
     7
 60
     1
100
AcDbPolyline
 90
        2
 70
     0
 43
0.0
 10
-3364.491589216656
 20
223.3802440035911
 10
-3328.407884905908
 20
232.839415475451
  0
MTEXT
  5
1BD
330
1F
100
AcDbEntity
  8
1
 62
     7
100
AcDbMText
 10
-176.4000000000002
 20
8.75
 30
0.0
 40
3.0
 41
0.0
 71
     4
 72
     1
  1
T.Tedeschi
  7
CONVERTER_11
 73
     1
 44
1.32052821128451
  0
MTEXT
  5
1BE
330
1F
100
AcDbEntity
  8
1
 62
     7
100
AcDbMText
 10
-176.4000000000002
 20
16.26063942075601
 30
0.0
 40
3.0
 41
0.0
 71
     4
 72
     1
  1
14/12/06
  7
CONVERTER_11
 73
     1
 44
1.32052821128451
  0
MTEXT
  5
1BF
330
1F
100
AcDbEntity
  8
1
 62
     7
100
AcDbMText
 10
-40.32369931125709
 20
10.06063942075602
 30
0.0
 40
4.5
 41
0.0
 71
     5
 72
     1
  1
1:1
  7
CONVERTER_11
 73
     1
 44
1.32052821128451
  0
MTEXT
  5
1C0
330
1F
100
AcDbEntity
  8
1
 62
     7
100
AcDbMText
 10
-152.723699311257
 20
12.5
 30
0.0
 40
4.5
 41
0.0
 71
     4
 72
     1
  1
MAO 24 L40\Phood side entry M40
  7
CONVERTER_11
 73
     1
 44
0.90036014405762
  0
MTEXT
  5
1C1
330
1F
100
AcDbEntity
  8
1
 62
     7
100
AcDbMText
 10
-173.0000000000001
 20
21.16935079462201
 30
0.0
 40
3.0
 41
0.0
 71
     8
 72
     1
  1
14/11/08
  7
CONVERTER_11
 73
     1
 44
1.32052821128451
  0
TEXT
  5
1C2
330
1F
100
AcDbEntity
  8
1
 62
     7
100
AcDbText
 10
-161.2000000000001
 20
21.16935079462201
 30
0.0
 40
3.0
  1
Size 135mm to 138mm
 41
1.2
  7
CONVERTER_11
100
AcDbText
  0
DIMENSION
  5
1CE
330
1F
100
AcDbEntity
  8
1
100
AcDbDimension
  2
*D3
 10
-269.981232708526
 20
50.43108464917856
 30
0.0
 11
-200.9796840665551
 21
53.93108464917856
 31
0.0
 70
    32
  1
<>
 71
     5
 42
-1.0
 53
0.00013888888889
  3
ME10_DIM_10
100
AcDbAlignedDimension
 13
-131.9781354245842
 23
75.30618803085088
 33
0.0
 14
-269.981232708526
 24
75.30618803085088
 34
0.0
100
AcDbRotatedDimension
  0
DIMENSION
  5
1D9
330
1F
100
AcDbEntity
  8
1
100
AcDbDimension
  2
*D4
 10
-260.9796840598024
 20
63.09200245016598
 30
0.0
 11
-200.979684066555
 21
66.59200245016598
 31
0.0
 70
    32
  1
<>
 71
     5
 42
-1.0
 53
0.00013888888889
  3
ME10_DIM_11
100
AcDbAlignedDimension
 13
-140.9796840733076
 23
72.95191122992901
 33
0.0
 14
-260.9796840598024
 24
72.95191122992901
 34
0.0
100
AcDbRotatedDimension
  0
DIMENSION
  5
1E4
330
1F
100
AcDbEntity
  8
1
100
AcDbDimension
  2
*D5
 10
-88.82976880562398
 20
63.01533501889014
 30
0.0
 11
-67.32976880562387
 21
66.51533501889014
 31
0.0
 70
    32
  1
<>
 71
     5
 42
-1.0
 53
0.00013888888889
  3
ME10_DIM_12
100
AcDbAlignedDimension
 13
-45.82976880562376
 23
72.95191122992713
 33
0.0
 14
-88.82976880562398
 24
72.95191122992713
 34
0.0
100
AcDbRotatedDimension
  0
DIMENSION
  5
1EF
330
1F
100
AcDbEntity
  8
1
100
AcDbDimension
  2
*D6
 10
-26.7703378746387
 20
148.7050580563501
 30
0.0
 11
-30.2703378746387
 21
110.7056230435995
 31
0.0
 70
    32
  1
<>
 71
     5
 42
-1.0
 53
90.0
  3
ME10_DIM_13
100
AcDbAlignedDimension
 13
-47.22976880562385
 23
72.70618803084886
 33
0.0
 14
-67.2866168204099
 24
148.7050580563501
 34
0.0
 50
90.0
100
AcDbRotatedDimension
  0
DIMENSION
  5
1FA
330
1F
100
AcDbEntity
  8
1
100
AcDbDimension
  2
*D7
 10
-123.9450445741478
 20
151.3554600116156
 30
0.0
 11
-117.0252538852669
 21
132.2670735732057
 31
0.0
 70
    33
  1
<>
 71
     5
 42
-1.0
 53
-80.00000000000146
  3
ME10_DIM_14
100
AcDbAlignedDimension
 13
-130.9637521373498
 23
109.5008080230915
 33
0.0
 14
-137.9096792440259
 24
148.8931181435795
 34
0.0
  0
HATCH
  5
1FB
330
1F
100
AcDbEntity
  8
1
  6
Continuous
 62
     4
100
AcDbHatch
 10
0.0
 20
0.0
 30
0.0
210
0.0
220
0.0
230
1.0
  2
SOLID
 70
     1
 71
     1
 91
        1
 92
        1
 93
       14
 72
     1
 10
-198.1474332357533
 20
134.1765751806349
 11
-196.814565793878
 21
133.414701918018
 72
     2
 10
-196.9810817409347
 20
133.126074276453
 40
0.3332168604680034
 50
299.9816393688482
 51
479.981639368756
 73
     0
 72
     1
 10
-197.1475976879914
 20
132.837446634887
 11
-197.9807323223417
 21
133.313670287838
 72
     1
 10
-197.9807323223417
 20
133.313670287838
 11
-197.9807323223417
 21
132.0394048913202
 72
     1
 10
-197.9807323223417
 20
132.0394048913202
 11
-196.9810817409347
 21
132.0394048913202
 72
     2
 10
-196.9810817409347
 20
131.7061880308509
 40
0.3332168604680987
 50
270.0
 51
450.0
 73
     0
 72
     1
 10
-196.9810817409347
 20
131.3729711703828
 11
-197.9807323223417
 21
131.3729711703828
 72
     1
 10
-197.9807323223417
 20
131.3729711703828
 11
-197.9807323223417
 21
130.098708843531
 72
     1
 10
-197.9807323223417
 20
130.098708843531
 11
-197.1475976879914
 21
130.5748731205687
 72
     2
 10
-196.9810817409347
 20
130.2862454790031
 40
0.3332168604680915
 50
240.0183606312074
 51
420.018360631247
 73
     0
 72
     1
 10
-196.814565793878
 20
129.997617837437
 11
-198.1474332357533
 21
129.2358008810682
 72
     2
 10
-198.3139491828073
 20
129.5244285226328
 40
0.3332168604683829
 50
60.01836063152398
 51
180.0
 73
     0
 72
     1
 10
-198.6471660432757
 20
129.5244285226328
 11
-198.6471660432757
 21
133.8879475390688
 72
     2
 10
-198.3139491828073
 20
133.8879475390688
 40
0.333216860466728
 50
180.0
 51
299.9816393683466
 73
     0
 97
       14
330
BD
330
18F
330
BE
330
BF
330
C0
330
190
330
C1
330
C2
330
C3
330
191
330
C4
330
1B5
330
C5
330
1B4
 75
     0
 76
     1
 98
        1
 10
0.0
 20
0.0
  0
HATCH
  5
1FC
330
1F
100
AcDbEntity
  8
1
  6
Continuous
 62
     4
100
AcDbHatch
 10
0.0
 20
0.0
 30
0.0
210
0.0
220
0.0
230
1.0
  2
SOLID
 70
     1
 71
     1
 91
        2
 92
        1
 93
        8
 72
     2
 10
-200.9796840665571
 20
136.371224077408
 40
0.3332168604686469
 50
60.24751292420579
 51
119.751935934501
 73
     1
 72
     1
 10
-201.1450415468721
 20
136.6605169736302
 11
-209.5592995193341
 21
131.8509951526192
 72
     2
 10
-209.4765289394131
 20
131.7061880308509
 40
0.1667934993195868
 50
119.7519359345702
 51
240.2480640651972
 73
     1
 72
     1
 10
-209.5592995193341
 20
131.561380909084
 11
-201.1450415468721
 21
126.751859088072
 72
     2
 10
-200.9796840665571
 20
127.041151984294
 40
0.3332168604687439
 50
240.248064065482
 51
299.7524870757784
 73
     1
 72
     1
 10
-200.8143238034749
 20
126.7518606786969
 11
-192.3999739930727
 21
131.5615423780529
 72
     2
 10
-192.4826541246097
 20
131.7061880308509
 40
0.1666084302318906
 50
299.7524870746457
 51
420.2475129255387
 73
     1
 72
     1
 10
-192.3999739930727
 20
131.85083368365
 11
-200.8143238034749
 21
136.6605153830049
 97
        8
330
186
330
AC
330
188
330
AB
330
185
330
AE
330
187
330
AD
 92
       16
 93
        4
 72
     1
 10
-200.9796840665571
 20
136.371224077408
 11
-192.8183861621369
 21
131.7061880308509
 72
     1
 10
-192.8183861621369
 20
131.7061880308509
 11
-200.9796840665571
 21
127.041151984294
 72
     1
 10
-200.9796840665571
 20
127.041151984294
 11
-209.1411641902318
 21
131.7061880308509
 72
     1
 10
-209.1411641902318
 20
131.7061880308509
 11
-200.9796840665571
 21
136.371224077408
 97
        4
330
A7
330
A8
330
A9
330
AA
 75
     0
 76
     1
 98
        1
 10
0.0
 20
0.0
  0
HATCH
  5
1FD
330
1F
100
AcDbEntity
  8
1
  6
Continuous
 62
     4
100
AcDbHatch
 10
0.0
 20
0.0
 30
0.0
210
0.0
220
0.0
230
1.0
  2
SOLID
 70
     1
 71
     1
 91
        1
 92
        1
 93
       13
 72
     2
 10
-199.6468166246845
 20
134.6498208016857
 40
0.3332168604711114
 50
0.0
 51
149.9999999998254
 73
     1
 72
     1
 10
-199.9353908908174
 20
134.8164292319199
 11
-200.9796840665571
 21
133.0076603935428
 72
     1
 10
-200.9796840665571
 20
133.0076603935428
 11
-202.0239772422924
 21
134.8164292319199
 72
     2
 10
-202.3125515084316
 20
134.6498208016857
 40
0.3332168604720884
 50
29.99999999963214
 51
180.0
 73
     1
 72
     1
 10
-202.6457683688981
 20
134.6498208016857
 11
-202.6457683688981
 21
130.2862454790031
 72
     2
 10
-202.3125515084316
 20
130.2862454790031
 40
0.3332168604665071
 50
180.0
 51
360.0
 73
     1
 72
     1
 10
-201.9793346479641
 20
130.2862454790031
 11
-201.9793346479641
 21
133.4062385484792
 72
     1
 10
-201.9793346479641
 20
133.4062385484792
 11
-201.1239711996308
 21
131.9247055970201
 72
     2
 10
-200.9796840665571
 20
132.0080098121369
 40
0.1666084302394446
 50
209.9999999988329
 51
330.0000000002191
 73
     1
 72
     1
 10
-200.8353969334889
 20
131.9247055970201
 11
-199.9800334851483
 21
133.4062385484792
 72
     1
 10
-199.9800334851483
 20
133.4062385484792
 11
-199.9800334851483
 21
128.7625552600167
 72
     2
 10
-199.6468166246845
 20
128.7625552600167
 40
0.3332168604638071
 50
180.0
 51
360.0
 73
     1
 72
     1
 10
-199.3135997642134
 20
128.7625552600167
 11
-199.3135997642134
 21
134.6498208016857
 97
       13
330
1B1
330
B6
330
B1
330
1B0
330
B2
330
189
330
B3
330
B0
330
1B2
330
AF
330
B4
330
18A
330
B5
 75
     0
 76
     1
 98
        1
 10
0.0
 20
0.0
  0
HATCH
  5
1FE
330
1F
100
AcDbEntity
  8
1
  6
Continuous
 62
     4
100
AcDbHatch
 10
0.0
 20
0.0
 30
0.0
210
0.0
220
0.0
230
1.0
  2
SOLID
 70
     1
 71
     1
 91
        1
 92
        1
 93
        7
 72
     1
 10
-203.3122020898358
 20
133.895092568396
 11
-203.3122020898358
 21
129.717728889473
 72
     1
 10
-203.3122020898358
 20
129.717728889473
 11
-201.1463849799688
 21
128.479765341848
 72
     2
 10
-201.3129009270255
 20
128.1911377002819
 40
0.3332168604687581
 50
299.981639368753
 51
479.9816393690592
 73
     0
 72
     1
 10
-201.4794168740841
 20
127.9025100587161
 11
-203.645233983952
 21
129.1404736063412
 72
     2
 10
-203.3122020898358
 20
129.717728889473
 40
0.6664337209350037
 50
119.9816393689766
 51
180.0
 73
     0
 72
     1
 10
-203.9786358107708
 20
129.717728889473
 11
-203.9786358107708
 21
133.895092568396
 72
     2
 10
-203.6454189503042
 20
133.895092568396
 40
0.3332168604683829
 50
180.0
 51
360.0
 73
     0
 97
        7
330
B8
330
B9
330
18C
330
BA
330
1B3
330
B7
330
18B
 75
     0
 76
     1
 98
        1
 10
0.0
 20
0.0
  0
HATCH
  5
1FF
330
1F
100
AcDbEntity
  8
1
  6
Continuous
 62
     4
100
AcDbHatch
 10
0.0
 20
0.0
 30
0.0
210
0.0
220
0.0
230
1.0
  2
SOLID
 70
     1
 71
     1
 91
        1
 92
        1
 93
        4
 72
     1
 10
-204.6450695317075
 20
133.1261305826991
 11
-204.6450695317075
 21
130.2862454790031
 72
     2
 10
-204.978286392175
 20
130.2862454790031
 40
0.3332168604674166
 50
0.0
 51
180.0
 73
     0
 72
     1
 10
-205.3115032526424
 20
130.2862454790031
 11
-205.3115032526424
 21
133.1261305826991
 72
     2
 10
-204.978286392175
 20
133.1261305826991
 40
0.3332168604675019
 50
180.0
 51
360.0
 73
     0
 97
        4
330
BB
330
18E
330
BC
330
18D
 75
     0
 76
     1
 98
        1
 10
0.0
 20
0.0
  0
ENDSEC
  0
SECTION
  2
OBJECTS
  0
DICTIONARY
  5
C
330
0
100
AcDbDictionary
281
     1
  3
ACAD_GROUP
350
D
  3
ACAD_LAYOUT
350
1A
  3
ACAD_MATERIAL
350
3B
  3
ACAD_MLEADERSTYLE
350
202
  3
ACAD_MLINESTYLE
350
17
  3
ACAD_PLOTSETTINGS
350
19
  3
ACAD_PLOTSTYLENAME
350
E
  3
ACAD_VISUALSTYLE
350
2A
  3
AcDbVariableDictionary
350
200
  0
DICTIONARY
  5
D
102
{ACAD_REACTORS
330
C
102
}
330
C
100
AcDbDictionary
281
     1
  0
DICTIONARY
  5
1A
102
{ACAD_REACTORS
330
C
102
}
330
C
100
AcDbDictionary
281
     1
  3
Layout1
350
1E
  3
Layout2
350
26
  3
Model
350
22
  0
DICTIONARY
  5
3B
102
{ACAD_REACTORS
330
C
102
}
330
C
100
AcDbDictionary
281
     1
  3
ByBlock
350
3D
  3
ByLayer
350
3C
  3
Global
350
3E
  0
DICTIONARY
  5
202
102
{ACAD_REACTORS
330
C
102
}
330
C
100
AcDbDictionary
281
     1
  0
DICTIONARY
  5
17
102
{ACAD_REACTORS
330
C
102
}
330
C
100
AcDbDictionary
281
     1
  3
Standard
350
18
  0
DICTIONARY
  5
19
102
{ACAD_REACTORS
330
C
102
}
330
C
100
AcDbDictionary
281
     1
  0
ACDBDICTIONARYWDFLT
  5
E
102
{ACAD_REACTORS
330
C
102
}
330
C
100
AcDbDictionary
281
     1
  3
Normal
350
F
100
AcDbDictionaryWithDefault
340
F
  0
DICTIONARY
  5
2A
102
{ACAD_REACTORS
330
C
102
}
330
C
100
AcDbDictionary
281
     1
  3
2dWireframe
350
2F
  3
3D Hidden
350
31
  3
3dWireframe
350
30
  3
Basic
350
32
  3
Brighten
350
36
  3
ColorChange
350
3A
  3
Conceptual
350
34
  3
Dim
350
35
  3
Facepattern
350
39
  3
Flat
350
2B
  3
FlatWithEdges
350
2C
  3
Gouraud
350
2D
  3
GouraudWithEdges
350
2E
  3
Linepattern
350
38
  3
Realistic
350
33
  3
Thicken
350
37
  0
DICTIONARY
  5
200
102
{ACAD_REACTORS
330
C
102
}
330
C
100
AcDbDictionary
281
     1
  3
DIMASSOC
350
203
  3
HIDETEXT
350
204
  0
LAYOUT
  5
1E
102
{ACAD_REACTORS
330
1A
102
}
330
1A
100
AcDbPlotSettings
  1

  2
none_device
  4

  6

 40
0.0
 41
0.0
 42
0.0
 43
0.0
 44
0.0
 45
0.0
 46
0.0
 47
0.0
 48
0.0
 49
0.0
140
0.0
141
0.0
142
1.0
143
1.0
 70
   688
 72
     0
 73
     0
 74
     5
  7

 75
    16
147
1.0
148
0.0
149
0.0
100
AcDbLayout
  1
Layout1
 70
     1
 71
     1
 10
0.0
 20
0.0
 11
12.0
 21
9.0
 12
0.0
 22
0.0
 32
0.0
 14
1.00000000000000E+20
 24
1.00000000000000E+20
 34
1.00000000000000E+20
 15
-1.00000000000000E+20
 25
-1.00000000000000E+20
 35
-1.00000000000000E+20
146
0.0
 13
0.0
 23
0.0
 33
0.0
 16
1.0
 26
0.0
 36
0.0
 17
0.0
 27
1.0
 37
0.0
 76
     0
330
1B
  0
LAYOUT
  5
26
102
{ACAD_REACTORS
330
1A
102
}
330
1A
100
AcDbPlotSettings
  1

  2
none_device
  4

  6

 40
0.0
 41
0.0
 42
0.0
 43
0.0
 44
0.0
 45
0.0
 46
0.0
 47
0.0
 48
0.0
 49
0.0
140
0.0
141
0.0
142
1.0
143
1.0
 70
   688
 72
     0
 73
     0
 74
     5
  7

 75
    16
147
1.0
148
0.0
149
0.0
100
AcDbLayout
  1
Layout2
 70
     1
 71
     2
 10
0.0
 20
0.0
 11
0.0
 21
0.0
 12
0.0
 22
0.0
 32
0.0
 14
0.0
 24
0.0
 34
0.0
 15
0.0
 25
0.0
 35
0.0
146
0.0
 13
0.0
 23
0.0
 33
0.0
 16
1.0
 26
0.0
 36
0.0
 17
0.0
 27
1.0
 37
0.0
 76
     0
330
23
  0
LAYOUT
  5
22
102
{ACAD_REACTORS
330
1A
102
}
330
1A
100
AcDbPlotSettings
  1

  2
none_device
  4

  6

 40
0.0
 41
0.0
 42
0.0
 43
0.0
 44
0.0
 45
0.0
 46
0.0
 47
0.0
 48
0.0
 49
0.0
140
0.0
141
0.0
142
1.0
143
1.0
 70
  1712
 72
     0
 73
     0
 74
     0
  7

 75
     0
147
1.0
148
0.0
149
0.0
100
AcDbLayout
  1
Model
 70
     1
 71
     0
 10
0.0
 20
0.0
 11
12.0
 21
9.0
 12
0.0
 22
0.0
 32
0.0
 14
-297.0000000000002
 24
0.0
 34
0.0
 15
0.0
 25
210.0000000000001
 35
0.0
146
0.0
 13
0.0
 23
0.0
 33
0.0
 16
1.0
 26
0.0
 36
0.0
 17
0.0
 27
1.0
 37
0.0
 76
     0
330
1F
331
29
  0
MATERIAL
  5
3D
102
{ACAD_REACTORS
330
3B
102
}
102
{ACAD_XDICTIONARY
360
227
102
}
330
3B
100
AcDbMaterial
  1
ByBlock
  0
MATERIAL
  5
3C
102
{ACAD_REACTORS
330
3B
102
}
102
{ACAD_XDICTIONARY
360
225
102
}
330
3B
100
AcDbMaterial
  1
ByLayer
  0
MATERIAL
  5
3E
102
{ACAD_REACTORS
330
3B
102
}
102
{ACAD_XDICTIONARY
360
229
102
}
330
3B
100
AcDbMaterial
  1
Global
  0
MLINESTYLE
  5
18
102
{ACAD_REACTORS
330
17
102
}
330
17
100
AcDbMlineStyle
  2
Standard
 70
     0
  3

 62
   256
 51
90.0
 52
90.0
 71
     2
 49
0.5
 62
   256
  6
BYLAYER
 49
-0.5
 62
   256
  6
BYLAYER
  0
ACDBPLACEHOLDER
  5
F
102
{ACAD_REACTORS
330
E
102
}
330
E
  0
VISUALSTYLE
  5
2F
102
{ACAD_REACTORS
330
2A
102
}
102
{ACAD_XDICTIONARY
360
20D
102
}
330
2A
100
AcDbVisualStyle
  2
2dWireframe
 70
     4
 71
     0
 72
     2
 73
     0
 90
        0
 40
-0.6
 41
-30.0
 62
     5
 63
     7
 74
     1
 91
        4
 64
     7
 65
   257
 75
     1
175
     1
 42
1.0
 92
        0
 66
   257
 43
1.0
 76
     1
 77
     6
 78
     2
 67
     7
 79
     5
170
     0
171
     0
290
     0
174
     0
 93
        1
 44
0.0
173
     0
291
     0
 45
0.0
1001
ACAD
1000
AcDbSavedByObjectVersion
1070
     0
  0
VISUALSTYLE
  5
31
102
{ACAD_REACTORS
330
2A
102
}
102
{ACAD_XDICTIONARY
360
211
102
}
330
2A
100
AcDbVisualStyle
  2
3D Hidden
 70
     6
 71
     1
 72
     2
 73
     2
 90
        0
 40
-0.6
 41
-30.0
 62
     5
 63
     7
 74
     2
 91
        2
 64
     7
 65
   257
 75
     2
175
     1
 42
40.0
 92
        0
 66
   257
 43
1.0
 76
     1
 77
     6
 78
     2
 67
     7
 79
     3
170
     0
171
     0
290
     0
174
     0
 93
        1
 44
0.0
173
     0
291
     0
 45
0.0
1001
ACAD
1000
AcDbSavedByObjectVersion
1070
     0
  0
VISUALSTYLE
  5
30
102
{ACAD_REACTORS
330
2A
102
}
102
{ACAD_XDICTIONARY
360
20F
102
}
330
2A
100
AcDbVisualStyle
  2
3dWireframe
 70
     5
 71
     0
 72
     2
 73
     0
 90
        0
 40
-0.6
 41
-30.0
 62
     5
 63
     7
 74
     1
 91
        4
 64
     7
 65
   257
 75
     1
175
     1
 42
1.0
 92
        0
 66
   257
 43
1.0
 76
     1
 77
     6
 78
     2
 67
     7
 79
     5
170
     0
171
     0
290
     0
174
     0
 93
        1
 44
0.0
173
     0
291
     0
 45
0.0
1001
ACAD
1000
AcDbSavedByObjectVersion
1070
     0
  0
VISUALSTYLE
  5
32
102
{ACAD_REACTORS
330
2A
102
}
102
{ACAD_XDICTIONARY
360
213
102
}
330
2A
100
AcDbVisualStyle
  2
Basic
 70
     7
 71
     1
 72
     0
 73
     1
 90
        0
 40
-0.6
 41
-30.0
 62
     5
 63
     7
 74
     0
 91
        4
 64
     7
 65
   257
 75
     1
175
     1
 42
1.0
 92
        8
 66
     7
 43
1.0
 76
     1
 77
     6
 78
     2
 67
     7
 79
     5
170
     0
171
     0
290
     0
174
     0
 93
        1
 44
0.0
173
     0
291
     1
 45
0.0
1001
ACAD
1000
AcDbSavedByObjectVersion
1070
     0
  0
VISUALSTYLE
  5
36
102
{ACAD_REACTORS
330
2A
102
}
102
{ACAD_XDICTIONARY
360
21B
102
}
330
2A
100
AcDbVisualStyle
  2
Brighten
 70
    12
 71
     2
 72
     2
 73
     0
 90
        0
 40
-0.6
 41
-30.0
 62
     5
 63
     7
 74
     1
 91
        4
 64
     7
 65
   257
 75
     1
175
     1
 42
1.0
 92
        8
 66
     7
 43
1.0
 76
     1
 77
     6
 78
     2
 67
     7
 79
     5
170
     0
171
     0
290
     0
174
     0
 93
        1
 44
50.0
173
     0
291
     1
 45
0.0
1001
ACAD
1000
AcDbSavedByObjectVersion
1070
     0
  0
VISUALSTYLE
  5
3A
102
{ACAD_REACTORS
330
2A
102
}
102
{ACAD_XDICTIONARY
360
223
102
}
330
2A
100
AcDbVisualStyle
  2
ColorChange
 70
    16
 71
     2
 72
     2
 73
     3
 90
        0
 40
-0.6
 41
-30.0
 62
     5
 63
     8
 74
     1
 91
        4
 64
     7
 65
   257
 75
     1
175
     1
 42
1.0
 92
        8
 66
     8
 43
1.0
 76
     1
 77
     6
 78
     2
 67
     7
 79
     5
170
     0
171
     0
290
     0
174
     0
 93
        1
 44
0.0
173
     0
291
     1
 45
0.0
1001
ACAD
1000
AcDbSavedByObjectVersion
1070
     0
  0
VISUALSTYLE
  5
34
102
{ACAD_REACTORS
330
2A
102
}
102
{ACAD_XDICTIONARY
360
217
102
}
330
2A
100
AcDbVisualStyle
  2
Conceptual
 70
     9
 71
     3
 72
     2
 73
     0
 90
        0
 40
-0.6
 41
-30.0
 62
     5
 63
     7
 74
     2
 91
        2
 64
     7
 65
   257
 75
     1
175
     1
 42
40.0
 92
        8
 66
     7
 43
1.0
 76
     1
 77
     6
 78
     2
 67
     7
 79
     3
170
     0
171
     0
290
     0
174
     0
 93
        1
 44
0.0
173
     0
291
     0
 45
0.0
1001
ACAD
1000
AcDbSavedByObjectVersion
1070
     0
  0
VISUALSTYLE
  5
35
102
{ACAD_REACTORS
330
2A
102
}
102
{ACAD_XDICTIONARY
360
219
102
}
330
2A
100
AcDbVisualStyle
  2
Dim
 70
    11
 71
     2
 72
     2
 73
     0
 90
        0
 40
-0.6
 41
-30.0
 62
     5
 63
     7
 74
     1
 91
        4
 64
     7
 65
   257
 75
     1
175
     1
 42
1.0
 92
        8
 66
     7
 43
1.0
 76
     1
 77
     6
 78
     2
 67
     7
 79
     5
170
     0
171
     0
290
     0
174
     0
 93
        1
 44
-50.0
173
     0
291
     1
 45
0.0
1001
ACAD
1000
AcDbSavedByObjectVersion
1070
     0
  0
VISUALSTYLE
  5
39
102
{ACAD_REACTORS
330
2A
102
}
102
{ACAD_XDICTIONARY
360
221
102
}
330
2A
100
AcDbVisualStyle
  2
Facepattern
 70
    15
 71
     2
 72
     2
 73
     0
 90
        0
 40
-0.6
 41
-30.0
 62
     5
 63
     7
 74
     1
 91
        4
 64
     7
 65
   257
 75
     1
175
     1
 42
1.0
 92
        8
 66
     7
 43
1.0
 76
     1
 77
     6
 78
     2
 67
     7
 79
     5
170
     0
171
     0
290
     0
174
     0
 93
        1
 44
0.0
173
     0
291
     1
 45
0.0
1001
ACAD
1000
AcDbSavedByObjectVersion
1070
     0
  0
VISUALSTYLE
  5
2B
102
{ACAD_REACTORS
330
2A
102
}
102
{ACAD_XDICTIONARY
360
205
102
}
330
2A
100
AcDbVisualStyle
  2
Flat
 70
     0
 71
     2
 72
     1
 73
     1
 90
        2
 40
-0.6
 41
30.0
 62
     5
 63
     7
 74
     0
 91
        4
 64
     7
 65
   257
 75
     1
175
     1
 42
1.0
 92
        8
 66
     7
 43
1.0
 76
     1
 77
     6
 78
     2
 67
     7
 79
     5
170
     0
171
     0
290
     0
174
     0
 93
       13
 44
0.0
173
     0
291
     1
 45
0.0
1001
ACAD
1000
AcDbSavedByObjectVersion
1070
     0
  0
VISUALSTYLE
  5
2C
102
{ACAD_REACTORS
330
2A
102
}
102
{ACAD_XDICTIONARY
360
207
102
}
330
2A
100
AcDbVisualStyle
  2
FlatWithEdges
 70
     1
 71
     2
 72
     1
 73
     1
 90
        2
 40
-0.6
 41
30.0
 62
     5
 63
     7
 74
     1
 91
        4
 64
     7
 65
   257
 75
     1
175
     1
 42
1.0
 92
        0
 66
   257
 43
1.0
 76
     1
 77
     6
 78
     2
 67
     7
 79
     5
170
     0
171
     0
290
     0
174
     0
 93
       13
 44
0.0
173
     0
291
     1
 45
0.0
1001
ACAD
1000
AcDbSavedByObjectVersion
1070
     0
  0
VISUALSTYLE
  5
2D
102
{ACAD_REACTORS
330
2A
102
}
102
{ACAD_XDICTIONARY
360
209
102
}
330
2A
100
AcDbVisualStyle
  2
Gouraud
 70
     2
 71
     2
 72
     2
 73
     1
 90
        2
 40
-0.6
 41
30.0
 62
     5
 63
     7
 74
     0
 91
        4
 64
     7
 65
   257
 75
     1
175
     1
 42
1.0
 92
        0
 66
     7
 43
1.0
 76
     1
 77
     6
 78
     2
 67
     7
 79
     5
170
     0
171
     0
290
     0
174
     0
 93
       13
 44
0.0
173
     0
291
     1
 45
0.0
1001
ACAD
1000
AcDbSavedByObjectVersion
1070
     0
  0
VISUALSTYLE
  5
2E
102
{ACAD_REACTORS
330
2A
102
}
102
{ACAD_XDICTIONARY
360
20B
102
}
330
2A
100
AcDbVisualStyle
  2
GouraudWithEdges
 70
     3
 71
     2
 72
     2
 73
     1
 90
        2
 40
-0.6
 41
30.0
 62
     5
 63
     7
 74
     1
 91
        4
 64
     7
 65
   257
 75
     1
175
     1
 42
1.0
 92
        0
 66
   257
 43
1.0
 76
     1
 77
     6
 78
     2
 67
     7
 79
     5
170
     0
171
     0
290
     0
174
     0
 93
       13
 44
0.0
173
     0
291
     1
 45
0.0
1001
ACAD
1000
AcDbSavedByObjectVersion
1070
     0
  0
VISUALSTYLE
  5
38
102
{ACAD_REACTORS
330
2A
102
}
102
{ACAD_XDICTIONARY
360
21F
102
}
330
2A
100
AcDbVisualStyle
  2
Linepattern
 70
    14
 71
     2
 72
     2
 73
     0
 90
        0
 40
-0.6
 41
-30.0
 62
     5
 63
     7
 74
     1
 91
        4
 64
     7
 65
   257
 75
     7
175
     7
 42
1.0
 92
        8
 66
     7
 43
1.0
 76
     1
 77
     6
 78
     2
 67
     7
 79
     5
170
     0
171
     0
290
     0
174
     0
 93
        1
 44
0.0
173
     0
291
     1
 45
0.0
1001
ACAD
1000
AcDbSavedByObjectVersion
1070
     0
  0
VISUALSTYLE
  5
33
102
{ACAD_REACTORS
330
2A
102
}
102
{ACAD_XDICTIONARY
360
215
102
}
330
2A
100
AcDbVisualStyle
  2
Realistic
 70
     8
 71
     2
 72
     2
 73
     0
 90
        0
 40
-0.6
 41
-30.0
 62
     5
 63
     7
 74
     1
 91
        0
 64
     7
 65
   257
 75
     1
175
     1
 42
1.0
 92
        8
 66
     8
 43
1.0
 76
     1
 77
     6
 78
     2
 67
     7
 79
     5
170
     0
171
     0
290
     0
174
     0
 93
       13
 44
0.0
173
     0
291
     0
 45
0.0
1001
ACAD
1000
AcDbSavedByObjectVersion
1070
     0
  0
VISUALSTYLE
  5
37
102
{ACAD_REACTORS
330
2A
102
}
102
{ACAD_XDICTIONARY
360
21D
102
}
330
2A
100
AcDbVisualStyle
  2
Thicken
 70
    13
 71
     2
 72
     2
 73
     0
 90
        0
 40
-0.6
 41
-30.0
 62
     5
 63
     7
 74
     1
 91
        4
 64
     7
 65
   257
 75
     1
175
     1
 42
1.0
 92
       12
 66
     7
 43
1.0
 76
     1
 77
     6
 78
     2
 67
     7
 79
     5
170
     0
171
     0
290
     0
174
     0
 93
        1
 44
0.0
173
     0
291
     1
 45
0.0
1001
ACAD
1000
AcDbSavedByObjectVersion
1070
     0
  0
DICTIONARYVAR
  5
203
102
{ACAD_REACTORS
330
200
102
}
330
200
100
DictionaryVariables
280
     0
  1
2
  0
DICTIONARYVAR
  5
204
102
{ACAD_REACTORS
330
200
102
}
330
200
100
DictionaryVariables
280
     0
  1
1
  0
DICTIONARY
  5
227
330
3D
100
AcDbDictionary
280
     1
281
     1
  3
ACAD_XREC_ROUNDTRIP
360
228
  0
DICTIONARY
  5
225
330
3C
100
AcDbDictionary
280
     1
281
     1
  3
ACAD_XREC_ROUNDTRIP
360
226
  0
DICTIONARY
  5
229
330
3E
100
AcDbDictionary
280
     1
281
     1
  3
ACAD_XREC_ROUNDTRIP
360
22A
  0
DICTIONARY
  5
20D
330
2F
100
AcDbDictionary
280
     1
281
     1
  3
ACAD_XREC_ROUNDTRIP
360
20E
  0
DICTIONARY
  5
211
330
31
100
AcDbDictionary
280
     1
281
     1
  3
ACAD_XREC_ROUNDTRIP
360
212
  0
DICTIONARY
  5
20F
330
30
100
AcDbDictionary
280
     1
281
     1
  3
ACAD_XREC_ROUNDTRIP
360
210
  0
DICTIONARY
  5
213
330
32
100
AcDbDictionary
280
     1
281
     1
  3
ACAD_XREC_ROUNDTRIP
360
214
  0
DICTIONARY
  5
21B
330
36
100
AcDbDictionary
280
     1
281
     1
  3
ACAD_XREC_ROUNDTRIP
360
21C
  0
DICTIONARY
  5
223
330
3A
100
AcDbDictionary
280
     1
281
     1
  3
ACAD_XREC_ROUNDTRIP
360
224
  0
DICTIONARY
  5
217
330
34
100
AcDbDictionary
280
     1
281
     1
  3
ACAD_XREC_ROUNDTRIP
360
218
  0
DICTIONARY
  5
219
330
35
100
AcDbDictionary
280
     1
281
     1
  3
ACAD_XREC_ROUNDTRIP
360
21A
  0
DICTIONARY
  5
221
330
39
100
AcDbDictionary
280
     1
281
     1
  3
ACAD_XREC_ROUNDTRIP
360
222
  0
DICTIONARY
  5
205
330
2B
100
AcDbDictionary
280
     1
281
     1
  3
ACAD_XREC_ROUNDTRIP
360
206
  0
DICTIONARY
  5
207
330
2C
100
AcDbDictionary
280
     1
281
     1
  3
ACAD_XREC_ROUNDTRIP
360
208
  0
DICTIONARY
  5
209
330
2D
100
AcDbDictionary
280
     1
281
     1
  3
ACAD_XREC_ROUNDTRIP
360
20A
  0
DICTIONARY
  5
20B
330
2E
100
AcDbDictionary
280
     1
281
     1
  3
ACAD_XREC_ROUNDTRIP
360
20C
  0
DICTIONARY
  5
21F
330
38
100
AcDbDictionary
280
     1
281
     1
  3
ACAD_XREC_ROUNDTRIP
360
220
  0
DICTIONARY
  5
215
330
33
100
AcDbDictionary
280
     1
281
     1
  3
ACAD_XREC_ROUNDTRIP
360
216
  0
DICTIONARY
  5
21D
330
37
100
AcDbDictionary
280
     1
281
     1
  3
ACAD_XREC_ROUNDTRIP
360
21E
  0
XRECORD
  5
228
102
{ACAD_REACTORS
330
227
102
}
330
227
100
AcDbXrecord
280
     1
102
MATERIAL
148
0.0
149
0.0
149
0.0
 93
        0
 94
      127
282
     0
 72
     1
 77
     1
171
     1
175
     1
179
     1
273
     0
  0
XRECORD
  5
226
102
{ACAD_REACTORS
330
225
102
}
330
225
100
AcDbXrecord
280
     1
102
MATERIAL
148
0.0
149
0.0
149
0.0
 93
        0
 94
      127
282
     0
 72
     1
 77
     1
171
     1
175
     1
179
     1
273
     0
  0
XRECORD
  5
22A
102
{ACAD_REACTORS
330
229
102
}
330
229
100
AcDbXrecord
280
     1
102
MATERIAL
148
0.0
149
0.0
149
0.0
 93
        0
 94
      127
282
     0
 72
     1
 77
     1
171
     1
175
     1
179
     1
273
     0
  0
XRECORD
  5
20E
102
{ACAD_REACTORS
330
20D
102
}
330
20D
100
AcDbXrecord
280
     1
102
RTVSPropertyOp0
 70
     1
102
RTVSPropertyOp1
 70
     1
102
RTVSPropertyOp2
 70
     1
102
RTVSPropertyOp3
 70
     1
102
RTVSPropertyOp4
 70
     1
102
RTVSPropertyOp5
 70
     1
102
RTVSPropertyOp6
 70
     1
102
RTVSPropertyOp7
 70
     1
102
RTVSPropertyOp8
 70
     1
102
RTVSPropertyOp9
 70
     1
102
RTVSPropertyOp10
 70
     1
102
RTVSPropertyOp11
 70
     1
102
RTVSPropertyOp12
 70
     1
102
RTVSPropertyOp13
 70
     1
102
RTVSPropertyOp14
 70
     1
102
RTVSPropertyOp15
 70
     1
102
RTVSPropertyOp16
 70
     1
102
RTVSPropertyOp17
 70
     1
102
RTVSPropertyOp18
 70
     1
102
RTVSPropertyOp19
 70
     1
102
RTVSPropertyOp20
 70
     1
102
RTVSPropertyOp21
 70
     1
102
RTVSPropertyOp22
 70
     1
102
RTVSPropertyOp23
 70
     1
102
RTVSPropertyOp24
 70
     1
102
RTVSPropertyOp25
 70
     1
102
RTVSPropertyOp26
 70
     1
102
RTVSPropertyOp27
 70
     1
102
RTVSPropertyOp28
 70
     1
102
RTVSPropertyOp29
 70
     1
102
RTVSPropertyOp30
 70
     1
102
RTVSPropertyOp31
 70
     1
102
RTVSPropertyOp32
 70
     1
  0
XRECORD
  5
212
102
{ACAD_REACTORS
330
211
102
}
330
211
100
AcDbXrecord
280
     1
102
RTVSPropertyOp0
 70
     1
102
RTVSPropertyOp1
 70
     1
102
RTVSPropertyOp2
 70
     1
102
RTVSPropertyOp3
 70
     1
102
RTVSPropertyOp4
 70
     1
102
RTVSPropertyOp5
 70
     1
102
RTVSPropertyOp6
 70
     1
102
RTVSPropertyOp7
 70
     1
102
RTVSPropertyOp8
 70
     1
102
RTVSPropertyOp9
 70
     1
102
RTVSPropertyOp10
 70
     1
102
RTVSPropertyOp11
 70
     1
102
RTVSPropertyOp12
 70
     1
102
RTVSPropertyOp13
 70
     1
102
RTVSPropertyOp14
 70
     1
102
RTVSPropertyOp15
 70
     1
102
RTVSPropertyOp16
 70
     1
102
RTVSPropertyOp17
 70
     1
102
RTVSPropertyOp18
 70
     1
102
RTVSPropertyOp19
 70
     1
102
RTVSPropertyOp20
 70
     1
102
RTVSPropertyOp21
 70
     1
102
RTVSPropertyOp22
 70
     1
102
RTVSPropertyOp23
 70
     1
102
RTVSPropertyOp24
 70
     1
102
RTVSPropertyOp25
 70
     1
102
RTVSPropertyOp26
 70
     1
102
RTVSPropertyOp27
 70
     1
102
RTVSPropertyOp28
 70
     1
102
RTVSPropertyOp29
 70
     1
102
RTVSPropertyOp30
 70
     1
102
RTVSPropertyOp31
 70
     1
102
RTVSPropertyOp32
 70
     1
  0
XRECORD
  5
210
102
{ACAD_REACTORS
330
20F
102
}
330
20F
100
AcDbXrecord
280
     1
102
RTVSPropertyOp0
 70
     1
102
RTVSPropertyOp1
 70
     1
102
RTVSPropertyOp2
 70
     1
102
RTVSPropertyOp3
 70
     1
102
RTVSPropertyOp4
 70
     1
102
RTVSPropertyOp5
 70
     1
102
RTVSPropertyOp6
 70
     1
102
RTVSPropertyOp7
 70
     1
102
RTVSPropertyOp8
 70
     1
102
RTVSPropertyOp9
 70
     1
102
RTVSPropertyOp10
 70
     1
102
RTVSPropertyOp11
 70
     1
102
RTVSPropertyOp12
 70
     1
102
RTVSPropertyOp13
 70
     1
102
RTVSPropertyOp14
 70
     1
102
RTVSPropertyOp15
 70
     1
102
RTVSPropertyOp16
 70
     1
102
RTVSPropertyOp17
 70
     1
102
RTVSPropertyOp18
 70
     1
102
RTVSPropertyOp19
 70
     1
102
RTVSPropertyOp20
 70
     1
102
RTVSPropertyOp21
 70
     1
102
RTVSPropertyOp22
 70
     1
102
RTVSPropertyOp23
 70
     1
102
RTVSPropertyOp24
 70
     1
102
RTVSPropertyOp25
 70
     1
102
RTVSPropertyOp26
 70
     1
102
RTVSPropertyOp27
 70
     1
102
RTVSPropertyOp28
 70
     1
102
RTVSPropertyOp29
 70
     1
102
RTVSPropertyOp30
 70
     1
102
RTVSPropertyOp31
 70
     1
102
RTVSPropertyOp32
 70
     1
  0
XRECORD
  5
214
102
{ACAD_REACTORS
330
213
102
}
330
213
100
AcDbXrecord
280
     1
102
RTVSPropertyOp0
 70
     1
102
RTVSPropertyOp1
 70
     1
102
RTVSPropertyOp2
 70
     1
102
RTVSPropertyOp3
 70
     1
102
RTVSPropertyOp4
 70
     1
102
RTVSPropertyOp5
 70
     1
102
RTVSPropertyOp6
 70
     1
102
RTVSPropertyOp7
 70
     1
102
RTVSPropertyOp8
 70
     1
102
RTVSPropertyOp9
 70
     1
102
RTVSPropertyOp10
 70
     1
102
RTVSPropertyOp11
 70
     1
102
RTVSPropertyOp12
 70
     1
102
RTVSPropertyOp13
 70
     1
102
RTVSPropertyOp14
 70
     1
102
RTVSPropertyOp15
 70
     1
102
RTVSPropertyOp16
 70
     1
102
RTVSPropertyOp17
 70
     1
102
RTVSPropertyOp18
 70
     1
102
RTVSPropertyOp19
 70
     1
102
RTVSPropertyOp20
 70
     1
102
RTVSPropertyOp21
 70
     1
102
RTVSPropertyOp22
 70
     1
102
RTVSPropertyOp23
 70
     1
102
RTVSPropertyOp24
 70
     1
102
RTVSPropertyOp25
 70
     1
102
RTVSPropertyOp26
 70
     1
102
RTVSPropertyOp27
 70
     1
102
RTVSPropertyOp28
 70
     1
102
RTVSPropertyOp29
 70
     1
102
RTVSPropertyOp30
 70
     1
102
RTVSPropertyOp31
 70
     1
102
RTVSPropertyOp32
 70
     1
  0
XRECORD
  5
21C
102
{ACAD_REACTORS
330
21B
102
}
330
21B
100
AcDbXrecord
280
     1
102
RTVSPropertyOp0
 70
     1
102
RTVSPropertyOp1
 70
     1
102
RTVSPropertyOp2
 70
     1
102
RTVSPropertyOp3
 70
     1
102
RTVSPropertyOp4
 70
     1
102
RTVSPropertyOp5
 70
     1
102
RTVSPropertyOp6
 70
     1
102
RTVSPropertyOp7
 70
     1
102
RTVSPropertyOp8
 70
     1
102
RTVSPropertyOp9
 70
     1
102
RTVSPropertyOp10
 70
     1
102
RTVSPropertyOp11
 70
     1
102
RTVSPropertyOp12
 70
     1
102
RTVSPropertyOp13
 70
     1
102
RTVSPropertyOp14
 70
     1
102
RTVSPropertyOp15
 70
     1
102
RTVSPropertyOp16
 70
     1
102
RTVSPropertyOp17
 70
     1
102
RTVSPropertyOp18
 70
     1
102
RTVSPropertyOp19
 70
     1
102
RTVSPropertyOp20
 70
     1
102
RTVSPropertyOp21
 70
     1
102
RTVSPropertyOp22
 70
     1
102
RTVSPropertyOp23
 70
     1
102
RTVSPropertyOp24
 70
     1
102
RTVSPropertyOp25
 70
     1
102
RTVSPropertyOp26
 70
     1
102
RTVSPropertyOp27
 70
     1
102
RTVSPropertyOp28
 70
     1
102
RTVSPropertyOp29
 70
     1
102
RTVSPropertyOp30
 70
     1
102
RTVSPropertyOp31
 70
     1
102
RTVSPropertyOp32
 70
     1
  0
XRECORD
  5
224
102
{ACAD_REACTORS
330
223
102
}
330
223
100
AcDbXrecord
280
     1
102
RTVSPropertyOp0
 70
     1
102
RTVSPropertyOp1
 70
     1
102
RTVSPropertyOp2
 70
     1
102
RTVSPropertyOp3
 70
     1
102
RTVSPropertyOp4
 70
     1
102
RTVSPropertyOp5
 70
     1
102
RTVSPropertyOp6
 70
     1
102
RTVSPropertyOp7
 70
     1
102
RTVSPropertyOp8
 70
     1
102
RTVSPropertyOp9
 70
     1
102
RTVSPropertyOp10
 70
     1
102
RTVSPropertyOp11
 70
     1
102
RTVSPropertyOp12
 70
     1
102
RTVSPropertyOp13
 70
     1
102
RTVSPropertyOp14
 70
     1
102
RTVSPropertyOp15
 70
     1
102
RTVSPropertyOp16
 70
     1
102
RTVSPropertyOp17
 70
     1
102
RTVSPropertyOp18
 70
     1
102
RTVSPropertyOp19
 70
     1
102
RTVSPropertyOp20
 70
     1
102
RTVSPropertyOp21
 70
     1
102
RTVSPropertyOp22
 70
     1
102
RTVSPropertyOp23
 70
     1
102
RTVSPropertyOp24
 70
     1
102
RTVSPropertyOp25
 70
     1
102
RTVSPropertyOp26
 70
     1
102
RTVSPropertyOp27
 70
     1
102
RTVSPropertyOp28
 70
     1
102
RTVSPropertyOp29
 70
     1
102
RTVSPropertyOp30
 70
     1
102
RTVSPropertyOp31
 70
     1
102
RTVSPropertyOp32
 70
     1
  0
XRECORD
  5
218
102
{ACAD_REACTORS
330
217
102
}
330
217
100
AcDbXrecord
280
     1
102
RTVSPropertyOp0
 70
     1
102
RTVSPropertyOp1
 70
     1
102
RTVSPropertyOp2
 70
     1
102
RTVSPropertyOp3
 70
     1
102
RTVSPropertyOp4
 70
     1
102
RTVSPropertyOp5
 70
     1
102
RTVSPropertyOp6
 70
     1
102
RTVSPropertyOp7
 70
     1
102
RTVSPropertyOp8
 70
     1
102
RTVSPropertyOp9
 70
     1
102
RTVSPropertyOp10
 70
     1
102
RTVSPropertyOp11
 70
     1
102
RTVSPropertyOp12
 70
     1
102
RTVSPropertyOp13
 70
     1
102
RTVSPropertyOp14
 70
     1
102
RTVSPropertyOp15
 70
     1
102
RTVSPropertyOp16
 70
     1
102
RTVSPropertyOp17
 70
     1
102
RTVSPropertyOp18
 70
     1
102
RTVSPropertyOp19
 70
     1
102
RTVSPropertyOp20
 70
     1
102
RTVSPropertyOp21
 70
     1
102
RTVSPropertyOp22
 70
     1
102
RTVSPropertyOp23
 70
     1
102
RTVSPropertyOp24
 70
     1
102
RTVSPropertyOp25
 70
     1
102
RTVSPropertyOp26
 70
     1
102
RTVSPropertyOp27
 70
     1
102
RTVSPropertyOp28
 70
     1
102
RTVSPropertyOp29
 70
     1
102
RTVSPropertyOp30
 70
     1
102
RTVSPropertyOp31
 70
     1
102
RTVSPropertyOp32
 70
     1
  0
XRECORD
  5
21A
102
{ACAD_REACTORS
330
219
102
}
330
219
100
AcDbXrecord
280
     1
102
RTVSPropertyOp0
 70
     1
102
RTVSPropertyOp1
 70
     1
102
RTVSPropertyOp2
 70
     1
102
RTVSPropertyOp3
 70
     1
102
RTVSPropertyOp4
 70
     1
102
RTVSPropertyOp5
 70
     1
102
RTVSPropertyOp6
 70
     1
102
RTVSPropertyOp7
 70
     1
102
RTVSPropertyOp8
 70
     1
102
RTVSPropertyOp9
 70
     1
102
RTVSPropertyOp10
 70
     1
102
RTVSPropertyOp11
 70
     1
102
RTVSPropertyOp12
 70
     1
102
RTVSPropertyOp13
 70
     1
102
RTVSPropertyOp14
 70
     1
102
RTVSPropertyOp15
 70
     1
102
RTVSPropertyOp16
 70
     1
102
RTVSPropertyOp17
 70
     1
102
RTVSPropertyOp18
 70
     1
102
RTVSPropertyOp19
 70
     1
102
RTVSPropertyOp20
 70
     1
102
RTVSPropertyOp21
 70
     1
102
RTVSPropertyOp22
 70
     1
102
RTVSPropertyOp23
 70
     1
102
RTVSPropertyOp24
 70
     1
102
RTVSPropertyOp25
 70
     1
102
RTVSPropertyOp26
 70
     1
102
RTVSPropertyOp27
 70
     1
102
RTVSPropertyOp28
 70
     1
102
RTVSPropertyOp29
 70
     1
102
RTVSPropertyOp30
 70
     1
102
RTVSPropertyOp31
 70
     1
102
RTVSPropertyOp32
 70
     1
  0
XRECORD
  5
222
102
{ACAD_REACTORS
330
221
102
}
330
221
100
AcDbXrecord
280
     1
102
RTVSPropertyOp0
 70
     1
102
RTVSPropertyOp1
 70
     1
102
RTVSPropertyOp2
 70
     1
102
RTVSPropertyOp3
 70
     1
102
RTVSPropertyOp4
 70
     1
102
RTVSPropertyOp5
 70
     1
102
RTVSPropertyOp6
 70
     1
102
RTVSPropertyOp7
 70
     1
102
RTVSPropertyOp8
 70
     1
102
RTVSPropertyOp9
 70
     1
102
RTVSPropertyOp10
 70
     1
102
RTVSPropertyOp11
 70
     1
102
RTVSPropertyOp12
 70
     1
102
RTVSPropertyOp13
 70
     1
102
RTVSPropertyOp14
 70
     1
102
RTVSPropertyOp15
 70
     1
102
RTVSPropertyOp16
 70
     1
102
RTVSPropertyOp17
 70
     1
102
RTVSPropertyOp18
 70
     1
102
RTVSPropertyOp19
 70
     1
102
RTVSPropertyOp20
 70
     1
102
RTVSPropertyOp21
 70
     1
102
RTVSPropertyOp22
 70
     1
102
RTVSPropertyOp23
 70
     1
102
RTVSPropertyOp24
 70
     1
102
RTVSPropertyOp25
 70
     1
102
RTVSPropertyOp26
 70
     1
102
RTVSPropertyOp27
 70
     1
102
RTVSPropertyOp28
 70
     1
102
RTVSPropertyOp29
 70
     1
102
RTVSPropertyOp30
 70
     1
102
RTVSPropertyOp31
 70
     1
102
RTVSPropertyOp32
 70
     1
  0
XRECORD
  5
206
102
{ACAD_REACTORS
330
205
102
}
330
205
100
AcDbXrecord
280
     1
102
RTVSPropertyOp0
 70
     1
102
RTVSPropertyOp1
 70
     1
102
RTVSPropertyOp2
 70
     1
102
RTVSPropertyOp3
 70
     1
102
RTVSPropertyOp4
 70
     1
102
RTVSPropertyOp5
 70
     1
102
RTVSPropertyOp6
 70
     1
102
RTVSPropertyOp7
 70
     1
102
RTVSPropertyOp8
 70
     1
102
RTVSPropertyOp9
 70
     1
102
RTVSPropertyOp10
 70
     1
102
RTVSPropertyOp11
 70
     1
102
RTVSPropertyOp12
 70
     1
102
RTVSPropertyOp13
 70
     1
102
RTVSPropertyOp14
 70
     1
102
RTVSPropertyOp15
 70
     1
102
RTVSPropertyOp16
 70
     1
102
RTVSPropertyOp17
 70
     1
102
RTVSPropertyOp18
 70
     1
102
RTVSPropertyOp19
 70
     1
102
RTVSPropertyOp20
 70
     1
102
RTVSPropertyOp21
 70
     1
102
RTVSPropertyOp22
 70
     1
102
RTVSPropertyOp23
 70
     1
102
RTVSPropertyOp24
 70
     1
102
RTVSPropertyOp25
 70
     1
102
RTVSPropertyOp26
 70
     1
102
RTVSPropertyOp27
 70
     1
102
RTVSPropertyOp28
 70
     1
102
RTVSPropertyOp29
 70
     1
102
RTVSPropertyOp30
 70
     1
102
RTVSPropertyOp31
 70
     1
102
RTVSPropertyOp32
 70
     1
  0
XRECORD
  5
208
102
{ACAD_REACTORS
330
207
102
}
330
207
100
AcDbXrecord
280
     1
102
RTVSPropertyOp0
 70
     1
102
RTVSPropertyOp1
 70
     1
102
RTVSPropertyOp2
 70
     1
102
RTVSPropertyOp3
 70
     1
102
RTVSPropertyOp4
 70
     1
102
RTVSPropertyOp5
 70
     1
102
RTVSPropertyOp6
 70
     1
102
RTVSPropertyOp7
 70
     1
102
RTVSPropertyOp8
 70
     1
102
RTVSPropertyOp9
 70
     1
102
RTVSPropertyOp10
 70
     1
102
RTVSPropertyOp11
 70
     1
102
RTVSPropertyOp12
 70
     1
102
RTVSPropertyOp13
 70
     1
102
RTVSPropertyOp14
 70
     1
102
RTVSPropertyOp15
 70
     1
102
RTVSPropertyOp16
 70
     1
102
RTVSPropertyOp17
 70
     1
102
RTVSPropertyOp18
 70
     1
102
RTVSPropertyOp19
 70
     1
102
RTVSPropertyOp20
 70
     1
102
RTVSPropertyOp21
 70
     1
102
RTVSPropertyOp22
 70
     1
102
RTVSPropertyOp23
 70
     1
102
RTVSPropertyOp24
 70
     1
102
RTVSPropertyOp25
 70
     1
102
RTVSPropertyOp26
 70
     1
102
RTVSPropertyOp27
 70
     1
102
RTVSPropertyOp28
 70
     1
102
RTVSPropertyOp29
 70
     1
102
RTVSPropertyOp30
 70
     1
102
RTVSPropertyOp31
 70
     1
102
RTVSPropertyOp32
 70
     1
  0
XRECORD
  5
20A
102
{ACAD_REACTORS
330
209
102
}
330
209
100
AcDbXrecord
280
     1
102
RTVSPropertyOp0
 70
     1
102
RTVSPropertyOp1
 70
     1
102
RTVSPropertyOp2
 70
     1
102
RTVSPropertyOp3
 70
     1
102
RTVSPropertyOp4
 70
     1
102
RTVSPropertyOp5
 70
     1
102
RTVSPropertyOp6
 70
     1
102
RTVSPropertyOp7
 70
     1
102
RTVSPropertyOp8
 70
     1
102
RTVSPropertyOp9
 70
     1
102
RTVSPropertyOp10
 70
     1
102
RTVSPropertyOp11
 70
     1
102
RTVSPropertyOp12
 70
     1
102
RTVSPropertyOp13
 70
     1
102
RTVSPropertyOp14
 70
     1
102
RTVSPropertyOp15
 70
     1
102
RTVSPropertyOp16
 70
     1
102
RTVSPropertyOp17
 70
     1
102
RTVSPropertyOp18
 70
     1
102
RTVSPropertyOp19
 70
     1
102
RTVSPropertyOp20
 70
     1
102
RTVSPropertyOp21
 70
     1
102
RTVSPropertyOp22
 70
     1
102
RTVSPropertyOp23
 70
     1
102
RTVSPropertyOp24
 70
     1
102
RTVSPropertyOp25
 70
     1
102
RTVSPropertyOp26
 70
     1
102
RTVSPropertyOp27
 70
     1
102
RTVSPropertyOp28
 70
     1
102
RTVSPropertyOp29
 70
     1
102
RTVSPropertyOp30
 70
     1
102
RTVSPropertyOp31
 70
     1
102
RTVSPropertyOp32
 70
     1
  0
XRECORD
  5
20C
102
{ACAD_REACTORS
330
20B
102
}
330
20B
100
AcDbXrecord
280
     1
102
RTVSPropertyOp0
 70
     1
102
RTVSPropertyOp1
 70
     1
102
RTVSPropertyOp2
 70
     1
102
RTVSPropertyOp3
 70
     1
102
RTVSPropertyOp4
 70
     1
102
RTVSPropertyOp5
 70
     1
102
RTVSPropertyOp6
 70
     1
102
RTVSPropertyOp7
 70
     1
102
RTVSPropertyOp8
 70
     1
102
RTVSPropertyOp9
 70
     1
102
RTVSPropertyOp10
 70
     1
102
RTVSPropertyOp11
 70
     1
102
RTVSPropertyOp12
 70
     1
102
RTVSPropertyOp13
 70
     1
102
RTVSPropertyOp14
 70
     1
102
RTVSPropertyOp15
 70
     1
102
RTVSPropertyOp16
 70
     1
102
RTVSPropertyOp17
 70
     1
102
RTVSPropertyOp18
 70
     1
102
RTVSPropertyOp19
 70
     1
102
RTVSPropertyOp20
 70
     1
102
RTVSPropertyOp21
 70
     1
102
RTVSPropertyOp22
 70
     1
102
RTVSPropertyOp23
 70
     1
102
RTVSPropertyOp24
 70
     1
102
RTVSPropertyOp25
 70
     1
102
RTVSPropertyOp26
 70
     1
102
RTVSPropertyOp27
 70
     1
102
RTVSPropertyOp28
 70
     1
102
RTVSPropertyOp29
 70
     1
102
RTVSPropertyOp30
 70
     1
102
RTVSPropertyOp31
 70
     1
102
RTVSPropertyOp32
 70
     1
  0
XRECORD
  5
220
102
{ACAD_REACTORS
330
21F
102
}
330
21F
100
AcDbXrecord
280
     1
102
RTVSPropertyOp0
 70
     1
102
RTVSPropertyOp1
 70
     1
102
RTVSPropertyOp2
 70
     1
102
RTVSPropertyOp3
 70
     1
102
RTVSPropertyOp4
 70
     1
102
RTVSPropertyOp5
 70
     1
102
RTVSPropertyOp6
 70
     1
102
RTVSPropertyOp7
 70
     1
102
RTVSPropertyOp8
 70
     1
102
RTVSPropertyOp9
 70
     1
102
RTVSPropertyOp10
 70
     1
102
RTVSPropertyOp11
 70
     1
102
RTVSPropertyOp12
 70
     1
102
RTVSPropertyOp13
 70
     1
102
RTVSPropertyOp14
 70
     1
102
RTVSPropertyOp15
 70
     1
102
RTVSPropertyOp16
 70
     1
102
RTVSPropertyOp17
 70
     1
102
RTVSPropertyOp18
 70
     1
102
RTVSPropertyOp19
 70
     1
102
RTVSPropertyOp20
 70
     1
102
RTVSPropertyOp21
 70
     1
102
RTVSPropertyOp22
 70
     1
102
RTVSPropertyOp23
 70
     1
102
RTVSPropertyOp24
 70
     1
102
RTVSPropertyOp25
 70
     1
102
RTVSPropertyOp26
 70
     1
102
RTVSPropertyOp27
 70
     1
102
RTVSPropertyOp28
 70
     1
102
RTVSPropertyOp29
 70
     1
102
RTVSPropertyOp30
 70
     1
102
RTVSPropertyOp31
 70
     1
102
RTVSPropertyOp32
 70
     1
  0
XRECORD
  5
216
102
{ACAD_REACTORS
330
215
102
}
330
215
100
AcDbXrecord
280
     1
102
RTVSPropertyOp0
 70
     1
102
RTVSPropertyOp1
 70
     1
102
RTVSPropertyOp2
 70
     1
102
RTVSPropertyOp3
 70
     1
102
RTVSPropertyOp4
 70
     1
102
RTVSPropertyOp5
 70
     1
102
RTVSPropertyOp6
 70
     1
102
RTVSPropertyOp7
 70
     1
102
RTVSPropertyOp8
 70
     1
102
RTVSPropertyOp9
 70
     1
102
RTVSPropertyOp10
 70
     1
102
RTVSPropertyOp11
 70
     1
102
RTVSPropertyOp12
 70
     1
102
RTVSPropertyOp13
 70
     1
102
RTVSPropertyOp14
 70
     1
102
RTVSPropertyOp15
 70
     1
102
RTVSPropertyOp16
 70
     1
102
RTVSPropertyOp17
 70
     1
102
RTVSPropertyOp18
 70
     1
102
RTVSPropertyOp19
 70
     1
102
RTVSPropertyOp20
 70
     1
102
RTVSPropertyOp21
 70
     1
102
RTVSPropertyOp22
 70
     1
102
RTVSPropertyOp23
 70
     1
102
RTVSPropertyOp24
 70
     1
102
RTVSPropertyOp25
 70
     1
102
RTVSPropertyOp26
 70
     1
102
RTVSPropertyOp27
 70
     1
102
RTVSPropertyOp28
 70
     1
102
RTVSPropertyOp29
 70
     1
102
RTVSPropertyOp30
 70
     1
102
RTVSPropertyOp31
 70
     1
102
RTVSPropertyOp32
 70
     1
  0
XRECORD
  5
21E
102
{ACAD_REACTORS
330
21D
102
}
330
21D
100
AcDbXrecord
280
     1
102
RTVSPropertyOp0
 70
     1
102
RTVSPropertyOp1
 70
     1
102
RTVSPropertyOp2
 70
     1
102
RTVSPropertyOp3
 70
     1
102
RTVSPropertyOp4
 70
     1
102
RTVSPropertyOp5
 70
     1
102
RTVSPropertyOp6
 70
     1
102
RTVSPropertyOp7
 70
     1
102
RTVSPropertyOp8
 70
     1
102
RTVSPropertyOp9
 70
     1
102
RTVSPropertyOp10
 70
     1
102
RTVSPropertyOp11
 70
     1
102
RTVSPropertyOp12
 70
     1
102
RTVSPropertyOp13
 70
     1
102
RTVSPropertyOp14
 70
     1
102
RTVSPropertyOp15
 70
     1
102
RTVSPropertyOp16
 70
     1
102
RTVSPropertyOp17
 70
     1
102
RTVSPropertyOp18
 70
     1
102
RTVSPropertyOp19
 70
     1
102
RTVSPropertyOp20
 70
     1
102
RTVSPropertyOp21
 70
     1
102
RTVSPropertyOp22
 70
     1
102
RTVSPropertyOp23
 70
     1
102
RTVSPropertyOp24
 70
     1
102
RTVSPropertyOp25
 70
     1
102
RTVSPropertyOp26
 70
     1
102
RTVSPropertyOp27
 70
     1
102
RTVSPropertyOp28
 70
     1
102
RTVSPropertyOp29
 70
     1
102
RTVSPropertyOp30
 70
     1
102
RTVSPropertyOp31
 70
     1
102
RTVSPropertyOp32
 70
     1
  0
ENDSEC
  0
EOF
